<?xml version="1.0" standalone="no"?>
<!DOCTYPE svg PUBLIC "-//W3C//DTD SVG 1.1//EN" "http://www.w3.org/Graphics/SVG/1.1/DTD/svg11.dtd" >
<svg>
<metadata>
Created by FontForge 20120731 at Thu Aug 22 20:32:00 2019
 By www
Copyright (c) 2015 DynaComware. All rights reserved.
</metadata>
<defs>
<font id="SFProPingFangSC-Light" horiz-adv-x="899" >
  <font-face 
    font-family="PingFang SC"
    font-weight="300"
    font-stretch="normal"
    units-per-em="1000"
    panose-1="2 11 3 0 0 0 0 0 0 0"
    ascent="860"
    descent="-140"
    bbox="-53 -134 941 861"
    underline-thickness="37"
    underline-position="-117"
    unicode-range="U+000D-2F894"
  />
<missing-glyph 
 />
    <glyph glyph-name=".notdef" 
 />
    <glyph glyph-name=".null" horiz-adv-x="0" 
 />
    <glyph glyph-name="nonmarkingreturn" horiz-adv-x="333" 
 />
    <glyph glyph-name="cid1" horiz-adv-x="0" 
 />
    <glyph glyph-name="cid2" unicode="&#xd;" horiz-adv-x="298" 
 />
    <glyph glyph-name="cid98" horiz-adv-x="0" 
 />
    <glyph glyph-name="cid112" unicode="&#xad;" horiz-adv-x="298" 
d="M37 300h225v-47h-225v47z" />
    <glyph glyph-name="cid120" unicode="&#xb5;" horiz-adv-x="491" 
d="M111 508v-285q0 -144 129 -144q56 0 96 39q40 42 45 107v283h54v-465h-54v78q-15 -23 -31 -40t-34 -27q-37 -23 -84 -23q-83 0 -121 62v-227h-55v642h55z" />
    <glyph glyph-name="cid224" unicode="&#x138;" horiz-adv-x="462" 
d="M56 508h55v-234l257 234h74l-204 -184l224 -281h-71l-192 246l-88 -80v-166h-55v465z" />
    <glyph glyph-name="cid228" unicode="&#x140;" horiz-adv-x="309" 
d="M256 401q16 0 26 -9q8 -10 8 -25q0 -14 -8 -25q-11 -11 -26 -11q-17 0 -25 11q-11 8 -11 25t11 25q8 9 25 9zM127 697v-654h-54v654h54z" />
    <glyph glyph-name="cid233" unicode="&#x149;" horiz-adv-x="576" 
d="M77 697l-17 -169h-41v169h58zM347 521q174 0 174 -191v-287h-55v282q0 149 -132 149q-56 0 -94 -40q-42 -42 -43 -110v-281h-55v465h55v-77q21 42 62 66q38 24 88 24z" />
    <glyph glyph-name="cid234" unicode="&#x14a;" horiz-adv-x="633" 
d="M125 684l388 -549h3v549h55v-701q0 -117 -123 -117h-48v46h45q71 0 71 73v61l-395 558h-3v-561h-55v641h62z" />
    <glyph glyph-name="cid235" unicode="&#x14b;" horiz-adv-x="491" 
d="M261 521q173 0 173 -191v-347q0 -117 -122 -117h-44v46h41q71 0 71 73v340q0 149 -131 149q-57 0 -95 -40q-40 -40 -43 -110v-281h-55v465h55v-77q24 42 63 66q19 12 41 18t46 6z" />
    <glyph glyph-name="cid262" unicode="&#x17f;" horiz-adv-x="332" 
d="M329 684v-47h-79q-35 0 -52 -18q-16 -18 -16 -57v-519h-54v418h-124v47h124v55q0 59 29 89q29 32 87 32h85z" />
    <glyph glyph-name="cid274" unicode="&#x2bb;" horiz-adv-x="448" 
d="M280 756q-37 -13 -54 -39q-20 -24 -18 -57q4 4 19 4q17 0 32 -14q13 -14 13 -33t-12 -34q-16 -13 -36 -13q-28 0 -42 22q-15 19 -15 56q0 54 31 91q31 42 82 52v-35z" />
    <glyph glyph-name="cid278" unicode="&#x2c9;" horiz-adv-x="448" 
d="M94 804h261v-36h-261v36z" />
    <glyph glyph-name="cid425" unicode="&#x2ca;" horiz-adv-x="448" 
d="M240 852h65l-120 -130h-39z" />
    <glyph glyph-name="cid426" unicode="&#x2cb;" horiz-adv-x="448" 
d="M146 852h64l95 -130h-40z" />
    <glyph glyph-name="cid29219" unicode="&#x2cd;" horiz-adv-x="448" 
d="M81 -35h287v-48h-287v48z" />
    <glyph glyph-name="cid285" unicode="&#x2ee;" horiz-adv-x="448" 
d="M303 793q26 0 41 -22q15 -23 15 -56q0 -54 -30 -92q-34 -39 -81 -50v35q32 10 53 36q18 27 18 58q-2 0 -7 -0.5t-12 -0.5q-18 0 -33 13q-12 12 -12 32q0 23 12 35q13 12 36 12zM149 793q26 0 42 -22q15 -23 15 -56q0 -51 -32 -92q-34 -39 -81 -50v35q33 10 54 36
q17 25 17 58q-2 0 -6.5 -0.5t-10.5 -0.5q-21 0 -33 13q-13 12 -13 32q0 23 12 35q13 12 36 12z" />
    <glyph glyph-name="cid311" unicode="&#x338;" horiz-adv-x="448" 
d="M360 520l28 -17l-299 -472l-29 17z" />
    <glyph glyph-name="cid312" unicode="&#x340;" horiz-adv-x="448" 
d="M146 692h64l95 -131h-40z" />
    <glyph glyph-name="cid313" unicode="&#x341;" horiz-adv-x="448" 
d="M240 692h65l-120 -131h-39z" />
    <glyph glyph-name="cid314" unicode="&#x344;" horiz-adv-x="448" 
d="M354 823l-119 -131h-41l95 131h65zM300 650q17 0 26 -10q10 -10 10 -26q0 -7 -2.5 -13.5t-7.5 -12.5q-6 -3 -11.5 -5.5t-14.5 -2.5q-14 0 -25 8q-10 11 -10 26q0 20 10 26q9 10 25 10zM149 650q15 0 25 -10q10 -9 10 -26q0 -14 -10 -26q-11 -8 -25 -8q-15 0 -25 8
q-10 11 -10 26q0 20 10 26q6 10 25 10z" />
    <glyph glyph-name="cid539" unicode="&#x2010;" horiz-adv-x="298" 
d="M37 391h225v-47h-225v47z" />
    <glyph glyph-name="cid325" unicode="&#x2015;" 
d="M0 394h899v-54h-899v54z" />
    <glyph glyph-name="cid540" unicode="&#x2016;" horiz-adv-x="448" 
d="M101 739h36v-745h-36v745zM311 739h37v-745h-37v745z" />
    <glyph glyph-name="cid326" unicode="&#x2018;" horiz-adv-x="289" 
d="M217 756q-36 -13 -55 -39q-20 -24 -16 -57q4 4 17 4q19 0 33 -14q13 -14 13 -33t-12 -34q-15 -13 -36 -13q-28 0 -42 22q-15 19 -15 56q0 55 32 91q28 42 81 52v-35z" />
    <glyph glyph-name="cid327" unicode="&#x2019;" horiz-adv-x="289" 
d="M127 793q24 0 43 -22q5 -10 9 -23.5t4 -32.5q0 -54 -31 -92q-31 -39 -82 -50v35q34 10 54 37q17 23 17 57q-2 0 -6.5 -0.5t-10.5 -0.5q-19 0 -32 13q-14 12 -14 32q0 23 12 35q13 12 37 12z" />
    <glyph glyph-name="cid329" unicode="&#x201c;" horiz-adv-x="443" 
d="M370 756q-35 -13 -53 -39q-19 -23 -19 -57q8 4 20 4q18 0 32 -14t14 -33q0 -20 -14 -34q-15 -13 -34 -13q-30 0 -42 22q-15 20 -15 56q0 54 30 91q31 42 81 52v-35zM217 756q-36 -13 -55 -39q-20 -24 -16 -57q4 4 17 4q19 0 33 -14q13 -14 13 -33t-12 -34
q-15 -13 -36 -13q-28 0 -42 22q-15 19 -15 56q0 55 32 91q28 42 81 52v-35z" />
    <glyph glyph-name="cid330" unicode="&#x201d;" horiz-adv-x="443" 
d="M282 793q24 0 41 -22q13 -22 13 -56q0 -52 -29 -92q-33 -39 -82 -50v35q34 10 53 37q18 23 18 57q-2 0 -7 -0.5t-11 -0.5q-19 0 -34 13q-12 12 -12 32q0 22 14 35q12 12 36 12zM127 793q24 0 43 -22q5 -10 9 -23.5t4 -32.5q0 -54 -31 -92q-31 -39 -82 -50v35q34 10 54 37
q17 23 17 57q-2 0 -6.5 -0.5t-10.5 -0.5q-19 0 -32 13q-14 12 -14 32q0 23 12 35q13 12 37 12z" />
    <glyph glyph-name="cid29220" unicode="&#x2027;" horiz-adv-x="448" 
d="M225 430q26 0 43 -18q19 -17 19 -44q0 -26 -19 -45q-17 -19 -43 -19q-27 0 -44 19q-20 20 -20 45q0 27 20 44q17 18 44 18z" />
    <glyph glyph-name="cid544" unicode="&#x2035;" horiz-adv-x="448" 
d="M146 852h64l95 -130h-40z" />
    <glyph glyph-name="cid545" unicode="&#x203b;" 
d="M448 689q20 0 35 -12q12 -13 12 -33q0 -17 -12 -32q-14 -13 -35 -13q-17 0 -32 13q-14 14 -14 32q0 20 14 33q16 12 32 12zM448 402l229 228l34 -34l-227 -228l227 -229l-34 -34l-229 227l-228 -227l-34 34l228 229l-228 228l34 34zM174 412q19 0 32 -12t13 -32
q0 -19 -13 -32q-14 -14 -32 -14q-22 0 -34 14q-13 13 -13 32q0 20 13 32q12 12 34 12zM725 412q21 0 33 -12q13 -12 13 -32q0 -18 -13 -32t-33 -14q-19 0 -33 14q-13 12 -13 32q0 21 13 32q13 12 33 12zM448 137q22 0 35 -12q12 -15 12 -33q0 -19 -12 -33q-15 -13 -35 -13
q-17 0 -32 14q-14 13 -14 32t14 33q14 12 32 12z" />
    <glyph glyph-name="cid546" unicode="&#x2103;" horiz-adv-x="825" 
d="M129 786q45 0 77 -31q32 -32 32 -77t-32 -77q-34 -33 -77 -33q-45 0 -76 33q-32 32 -32 77t32 77q30 31 76 31zM129 752q-30 0 -51 -20q-23 -22 -23 -54q0 -33 23 -52q21 -22 51 -22q31 0 53 22q21 20 21 52q0 31 -21 54q-23 20 -53 20zM516 697q103 0 175 -55
q74 -56 87 -150h-54q-13 73 -72 115q-58 41 -136 41q-118 0 -185 -84q-64 -78 -64 -202q0 -125 63 -200q66 -80 181 -80q81 0 140 43q63 50 82 139h54q-21 -113 -101 -176q-74 -57 -174 -57q-144 0 -226 99q-73 90 -73 232t75 235q82 100 228 100z" />
    <glyph glyph-name="cid548" unicode="&#x2109;" horiz-adv-x="770" 
d="M129 786q45 0 77 -31q32 -32 32 -77t-32 -77q-34 -33 -77 -33q-45 0 -76 33q-32 32 -32 77t32 77q30 31 76 31zM129 752q-30 0 -51 -20q-23 -22 -23 -54q0 -33 23 -52q21 -22 51 -22q31 0 53 22q21 20 21 52q0 31 -21 54q-23 20 -53 20zM731 684v-48h-359v-237h337v-49
h-337v-307h-55v641h414z" />
    <glyph glyph-name="cid365" unicode="&#x2126;" horiz-adv-x="653" 
d="M326 697q128 0 208 -89q81 -88 81 -219q0 -201 -159 -297h154v-49h-222v56q80 43 124 107q46 73 46 184q0 113 -66 186q-68 72 -166 72t-165 -72t-67 -186q0 -112 47 -184q43 -64 124 -107v-56h-222v49h154q-159 95 -159 297q0 132 81 219q79 89 207 89z" />
    <glyph glyph-name="cid366" unicode="&#x212b;" horiz-adv-x="579" 
d="M290 861q16 0 29 -6.5t24 -16.5q22 -24 22 -54q0 -28 -22 -52q-22 -22 -53 -22q-32 0 -54 22t-22 52q0 32 22 54q12 10 25.5 16.5t28.5 6.5zM290 835q-22 0 -36 -16q-14 -13 -14 -35q0 -19 14 -35q14 -14 36 -14q21 0 33 13q16 18 16 36q0 21 -16 35q-14 16 -33 16z
M321 684l258 -641h-61l-74 192h-309l-75 -192h-60l258 641h63zM425 281l-135 345h-2l-136 -345h273z" />
    <glyph glyph-name="cid367" unicode="&#x212e;" horiz-adv-x="729" 
d="M365 615q135 0 224 -85q93 -87 93 -213v-18h-548v-148q39 -53 98 -81q56 -30 133 -30q85 0 154 42q33 21 60 49t47 65h33q-39 -87 -118 -136q-84 -49 -176 -49q-134 0 -225 83q-92 84 -92 219q0 134 92 218q90 84 225 84zM365 586q-75 0 -133 -30q-59 -27 -98 -82v-147
h461v146q-37 53 -97 83q-59 30 -133 30z" />
    <glyph glyph-name="cid550" unicode="&#x2160;" 
d="M422 684h55v-641h-55v641z" />
    <glyph glyph-name="cid551" unicode="&#x2161;" 
d="M308 684h55v-641h-55v641zM536 684h56v-641h-56v641z" />
    <glyph glyph-name="cid552" unicode="&#x2162;" 
d="M199 684h56v-641h-56v641zM422 684h55v-641h-55v641zM643 684h56v-641h-56v641z" />
    <glyph glyph-name="cid553" unicode="&#x2163;" 
d="M125 684h55v-641h-55v641zM282 684h60l197 -578h2l195 578h63l-225 -641h-69z" />
    <glyph glyph-name="cid554" unicode="&#x2164;" 
d="M173 684h60l215 -581h1l217 581h60l-242 -641h-70z" />
    <glyph glyph-name="cid555" unicode="&#x2165;" 
d="M100 684h61l197 -578h1l197 578h61l-224 -641h-69zM719 684h55v-641h-55v641z" />
    <glyph glyph-name="cid556" unicode="&#x2166;" 
d="M37 684h62l175 -566h1l173 566h63l-205 -641h-64zM587 684h55v-641h-55v641zM753 684h55v-641h-55v641z" />
    <glyph glyph-name="cid557" unicode="&#x2167;" 
d="M25 684h58l142 -558h2l141 558h59l-169 -641h-64zM498 684h53v-641h-53v641zM639 684h53v-641h-53v641zM780 684h54v-641h-54v641z" />
    <glyph glyph-name="cid558" unicode="&#x2168;" 
d="M110 684h58v-641h-58v641zM285 684h69l186 -262l188 262h69l-223 -307l240 -334h-68l-206 290l-206 -290h-69l240 334z" />
    <glyph glyph-name="cid559" unicode="&#x2169;" 
d="M193 684h69l186 -262l188 262h69l-222 -307l240 -334h-69l-206 291l-205 -291h-68l240 334z" />
    <glyph glyph-name="cid560" unicode="&#x216a;" 
d="M102 684h69l187 -262l187 262h69l-223 -307l241 -334h-68l-206 291l-206 -291h-69l240 334zM730 684h58v-641h-58v641z" />
    <glyph glyph-name="cid561" unicode="&#x216b;" 
d="M49 684h69l157 -257l158 257h67l-191 -310l204 -331h-68l-170 279l-170 -279h-69l204 331zM595 684h58v-641h-58v641zM759 684h59v-641h-59v641z" />
    <glyph glyph-name="cid562" unicode="&#x2170;" 
d="M448 676q21 0 35 -15q12 -9 12 -30q0 -19 -12 -33q-15 -13 -35 -13q-16 0 -32 13q-14 13 -14 33q0 21 14 30q15 15 32 15zM476 508v-465h-54v465h54z" />
    <glyph glyph-name="cid563" unicode="&#x2171;" 
d="M336 676q19 0 32 -15q14 -9 14 -30q0 -20 -14 -33t-32 -13t-33 13q-13 12 -13 33q0 22 13 30q14 15 33 15zM562 676q19 0 33 -15q12 -8 12 -30q0 -21 -12 -33q-15 -13 -33 -13q-19 0 -32 13t-13 33q0 21 13 30q12 15 32 15zM363 508v-465h-54v465h54zM589 508v-465h-53
v465h53z" />
    <glyph glyph-name="cid564" unicode="&#x2172;" 
d="M240 676q20 0 34 -15q12 -9 12 -30q0 -19 -12 -33q-15 -13 -34 -13q-18 0 -33 13q-13 12 -13 33q0 22 13 30q13 15 33 15zM448 676q21 0 35 -15q12 -9 12 -30q0 -19 -12 -33q-15 -13 -35 -13q-16 0 -32 13q-14 13 -14 33q0 21 14 30q15 15 32 15zM657 676q21 0 34 -15
q12 -8 12 -30q0 -21 -12 -33q-13 -13 -34 -13q-16 0 -31 13q-12 12 -12 33q0 22 12 30q14 15 31 15zM266 508v-465h-53v465h53zM476 508v-465h-54v465h54zM685 508v-465h-54v465h54z" />
    <glyph glyph-name="cid565" unicode="&#x2173;" 
d="M198 676q20 0 34 -15q12 -9 12 -30q0 -19 -12 -33q-16 -13 -34 -13q-17 0 -33 13q-13 13 -13 33q0 21 13 30q15 15 33 15zM226 508v-465h-54v465h54zM400 508l147 -396l145 396h60l-178 -465h-56l-177 465h59z" />
    <glyph glyph-name="cid566" unicode="&#x2174;" 
d="M243 508h60l145 -396l147 396h59l-177 -465h-56z" />
    <glyph glyph-name="cid567" unicode="&#x2175;" 
d="M206 508l146 -396l146 396h59l-178 -465h-56l-177 465h60zM700 676q20 0 33 -15q13 -9 13 -30q0 -19 -13 -33q-14 -13 -33 -13q-17 0 -32 13q-13 12 -13 33q0 22 13 30q14 15 32 15zM728 508v-465h-54v465h54z" />
    <glyph glyph-name="cid568" unicode="&#x2176;" 
d="M587 676q18 0 32 -15q13 -9 13 -30q0 -20 -13 -33q-15 -13 -32 -13q-19 0 -33 13q-13 12 -13 33q0 22 13 30q12 15 33 15zM755 676q20 0 33 -15q13 -9 13 -30q0 -20 -14 -33q-12 -13 -32 -13q-19 0 -31 13q-14 13 -14 33q0 21 14 30q11 15 31 15zM113 508l147 -396
l145 396h60l-178 -465h-56l-177 465h59zM614 508v-465h-54v465h54zM782 508v-465h-53v465h53z" />
    <glyph glyph-name="cid569" unicode="&#x2177;" 
d="M495 676q19 0 32 -15q13 -9 13 -30q0 -19 -13 -33q-14 -13 -32 -13q-19 0 -31 13q-14 12 -14 33q0 22 14 30q11 15 31 15zM638 676q17 0 31 -15q13 -9 13 -30q0 -19 -13 -33q-15 -13 -31 -13q-19 0 -32 13t-13 33q0 21 13 30q12 15 32 15zM779 676q19 0 32 -15
q13 -9 13 -30q0 -19 -13 -33q-14 -13 -32 -13q-20 0 -32 13q-13 12 -13 33q0 22 13 30q11 15 32 15zM99 508l125 -390l121 390h57l-153 -465h-53l-154 465h57zM521 508v-465h-52v465h52zM664 508v-465h-52v465h52zM804 508v-465h-51v465h51z" />
    <glyph glyph-name="cid570" unicode="&#x2178;" 
d="M194 676q21 0 34 -15q12 -9 12 -30q0 -19 -12 -33q-13 -13 -34 -13q-18 0 -31 13t-13 33q0 21 13 30q12 15 31 15zM222 508v-465h-54v465h54zM408 508l132 -178l133 178h63l-165 -219l186 -246h-65l-152 205l-152 -205h-65l187 246l-168 219h66z" />
    <glyph glyph-name="cid571" unicode="&#x2179;" 
d="M252 508h64l132 -178l134 178h64l-166 -219l186 -246h-64l-154 205l-151 -205h-65l187 246z" />
    <glyph glyph-name="cid375" unicode="&#x2206;" horiz-adv-x="582" 
d="M261 684h61l249 -641h-560zM291 617l-202 -523h404z" />
    <glyph glyph-name="cid593" unicode="&#x2236;" horiz-adv-x="448" 
d="M225 684q19 0 33 -13q12 -12 12 -31q0 -17 -12 -32q-16 -12 -33 -12q-20 0 -33 12q-13 14 -13 32q0 19 13 31q12 13 33 13zM225 133q19 0 33 -12q12 -14 12 -33q0 -17 -12 -31q-16 -14 -33 -14q-21 0 -33 15q-13 13 -13 30q0 20 13 33q12 12 33 12z" />
    <glyph glyph-name="cid388" unicode="&#x22c5;" horiz-adv-x="305" 
d="M152 430q25 0 44 -18q19 -17 19 -44q0 -24 -19 -44q-20 -20 -44 -20q-26 0 -43 20q-20 20 -20 44q0 27 20 44q17 18 43 18z" />
    <glyph glyph-name="cid8004" unicode="&#x9f99;" 
d="M552 -31q-65 0 -65 77v59q-40 -25 -82 -45.5t-86 -35.5l-28 40q109 39 196 99v364h-127q-5 -51 -12.5 -96.5t-16.5 -86.5q-61 -236 -260 -383l-31 40q179 132 239 337q11 43 19.5 90t13.5 99h-253v47h258q4 48 5.5 98t1.5 106h49q0 -56 -2.5 -106t-5.5 -98h481v-47h-310
v-327q58 49 106 110t87 136l42 -24q-93 -176 -235 -284v-82q0 -42 30 -42h166q29 0 39 21q16 27 20 152l46 -16q-6 -141 -30 -176q-21 -26 -65 -26h-190zM572 774q100 -63 170 -130l-34 -33q-32 31 -73.5 64.5t-95.5 68.5z" />
    <glyph glyph-name="cid8004" unicode="&#x2ef0;" 
d="M552 -31q-65 0 -65 77v59q-40 -25 -82 -45.5t-86 -35.5l-28 40q109 39 196 99v364h-127q-5 -51 -12.5 -96.5t-16.5 -86.5q-61 -236 -260 -383l-31 40q179 132 239 337q11 43 19.5 90t13.5 99h-253v47h258q4 48 5.5 98t1.5 106h49q0 -56 -2.5 -106t-5.5 -98h481v-47h-310
v-327q58 49 106 110t87 136l42 -24q-93 -176 -235 -284v-82q0 -42 30 -42h166q29 0 39 21q16 27 20 152l46 -16q-6 -141 -30 -176q-21 -26 -65 -26h-190zM572 774q100 -63 170 -130l-34 -33q-32 31 -73.5 64.5t-95.5 68.5z" />
    <glyph glyph-name="cid7771" unicode="&#x9ad8;" 
d="M450 781q16 -36 32 -85h361v-47h-789v47h377q-9 20 -16 39.5t-17 35.5zM625 -42l-11 45l72 -2q61 0 61 49v256h-596v-349h-46v393h687v-311q0 -81 -91 -81h-76zM694 580v-165h-488v165h488zM646 540h-393v-86h393v86zM621 240v-173h-343v173h343zM576 200h-254v-95h254
v95z" />
    <glyph glyph-name="cid7771" unicode="&#x2fbc;" 
d="M450 781q16 -36 32 -85h361v-47h-789v47h377q-9 20 -16 39.5t-17 35.5zM625 -42l-11 45l72 -2q61 0 61 49v256h-596v-349h-46v393h687v-311q0 -81 -91 -81h-76zM694 580v-165h-488v165h488zM646 540h-393v-86h393v86zM621 240v-173h-343v173h343zM576 200h-254v-95h254
v95z" />
    <glyph glyph-name="cid821" unicode="&#x3001;" horiz-adv-x="549" 
d="M124 163q49 -32 100 -87q46 -47 76 -89l-36 -30q-16 22 -34.5 44.5t-40.5 44.5q-26 26 -49 48.5t-46 38.5z" />
    <glyph glyph-name="cid822" unicode="&#x3002;" horiz-adv-x="501" 
d="M192 166q45 0 78 -31q33 -30 33 -76q0 -45 -33 -78q-35 -31 -78 -31q-45 0 -79 31q-33 31 -33 78q0 48 33 76q31 31 79 31zM192 129q-33 0 -51 -21q-22 -18 -22 -49q0 -30 22 -51q20 -20 51 -20q15 0 27 6t24 14q21 21 21 51q0 28 -21 49q-23 21 -51 21z" />
    <glyph glyph-name="cid824" unicode="&#x3005;" 
d="M444 757q-20 -59 -41 -112t-47 -100h420v-38q-90 -226 -264 -351q48 -39 89 -77t77 -76l-35 -37q-122 133 -335 288l33 32q37 -27 70 -51t62 -48q161 113 248 310h-391q-76 -128 -173 -218l-34 34q183 179 275 455z" />
    <glyph glyph-name="cid829" unicode="&#x300a;" horiz-adv-x="651" 
d="M414 786l45 -19l-179 -399l177 -401l-43 -19l-185 420zM553 786l43 -19l-177 -399l177 -401l-43 -19l-184 420z" />
    <glyph glyph-name="cid830" unicode="&#x300b;" horiz-adv-x="652" 
d="M98 786l184 -418l-184 -420l-44 19l177 401l-177 399zM236 786l185 -418l-185 -420l-43 19l176 401l-178 399z" />
    <glyph glyph-name="cid831" unicode="&#x300c;" horiz-adv-x="603" 
d="M295 786h279v-47h-229v-503h-50v550z" />
    <glyph glyph-name="cid832" unicode="&#x300d;" horiz-adv-x="603" 
d="M258 498h50v-550h-281v46h231v504z" />
    <glyph glyph-name="cid1246" unicode="&#x4e00;" 
d="M47 397h803v-48h-803v48z" />
    <glyph glyph-name="cid1247" unicode="&#x4e01;" 
d="M834 706v-48h-352v-610q0 -85 -84 -85h-140l-12 49q70 -4 135 -4q52 0 52 53v597h-367v48h768z" />
    <glyph glyph-name="cid1248" unicode="&#x4e03;" 
d="M850 509l-452 -83v-363q0 -36 35 -36h267q35 0 50 20q14 22 20 154l46 -14q-8 -148 -29 -179q-21 -29 -79 -29h-288q-72 0 -72 78v361l-296 -55l-8 47l304 58v302h50v-294l444 81z" />
    <glyph glyph-name="cid1249" unicode="&#x4e07;" 
d="M839 710v-49h-465v-37q0 -45 -3 -87t-6 -81h385q-2 -177 -10 -280.5t-23 -138.5q-34 -69 -113 -69q-24 0 -53 0.5t-62 1.5l-14 46q71 -1 118 -3q68 3 85 67q19 61 22 328h-342q-10 -62 -24 -116t-34 -99q-68 -151 -227 -236l-27 44q78 40 132 98t87 133q30 74 44 172.5
t17 219.5v37h-268v49h781z" />
    <glyph glyph-name="cid1250" unicode="&#x4e08;" 
d="M522 617v157h48v-157h267v-49h-269q-7 -117 -36.5 -210.5t-84.5 -166.5q158 -121 412 -190l-24 -44q-259 72 -419 198q-118 -125 -348 -197l-28 42q226 69 340 185q-148 130 -203 310l43 14q52 -166 191 -288q1 2 4 5q91 134 106 342h-455v49h456z" />
    <glyph glyph-name="cid1251" unicode="&#x4e09;" 
d="M112 702h675v-47h-675v47zM174 391h551v-48h-551v48zM45 56h809v-49h-809v49z" />
    <glyph glyph-name="cid1252" unicode="&#x4e0a;" 
d="M382 776h51v-283h331v-47h-331v-404h415v-47h-795v47h329v734z" />
    <glyph glyph-name="cid1253" unicode="&#x4e0b;" 
d="M846 722v-46h-398v-150q87 -44 172.5 -94.5t173.5 -108.5l-29 -44q-189 128 -317 196v-521h-47v722h-348v46h793z" />
    <glyph glyph-name="cid1255" unicode="&#x4e0d;" 
d="M826 723v-46h-292q-13 -31 -28.5 -59.5t-32.5 -54.5v-609h-49v534q-65 -85 -151 -158.5t-194 -138.5l-32 42q312 183 431 444h-406v46h754zM587 485q158 -127 264 -251l-38 -38q-94 120 -261 255z" />
    <glyph glyph-name="cid1256" unicode="&#x4e0e;" 
d="M295 776l-13 -124h502v-48h-508l-18 -161h512q0 -363 -45 -422q-45 -55 -191 -55h-50.5t-52.5 2l-15 45q38 -2 65 -3.5t42 -1.5q142 0 168 55q30 56 30 334h-518l45 384zM610 235v-47h-521v47h521z" />
    <glyph glyph-name="cid1258" unicode="&#x4e11;" 
d="M666 683h-292l-33 -282h302zM293 401l33 282h-205v48h596l-52 -699h179v-48h-790v48h196l37 322h-151v47h157zM298 32h316l26 322h-304z" />
    <glyph glyph-name="cid1259" unicode="&#x4e13;" 
d="M307 495q9 32 17 63t17 64h-231v45h242q5 29 10.5 57t11.5 57l49 -5q-5 -30 -10 -56.5t-12 -52.5h396v-45h-407q-16 -68 -31 -127h491v-47h-505q-10 -37 -21.5 -70t-22.5 -63h438v-44q-67 -107 -212 -212q44 -17 85.5 -35t82.5 -37l-28 -41q-206 100 -423 161l27 38
q53 -15 104 -31.5t101 -33.5q66 43 117.5 91t89.5 98h-451q32 86 62 179h-246v47h259z" />
    <glyph glyph-name="cid1260" unicode="&#x4e14;" 
d="M244 463v-187h412v187h-412zM656 509v180h-412v-180h412zM244 229v-194h412v194h-412zM53 35h141v701h511v-701h141v-47h-793v47z" />
    <glyph glyph-name="cid1262" unicode="&#x4e16;" 
d="M46 556h119v209h50v-209h200v216h49v-216h198v216h47v-216h142v-47h-142v-284h-294v284h-200v-468h606v-49h-656v517h-119v47zM464 509v-234h198v234h-198z" />
    <glyph glyph-name="cid1263" unicode="&#x4e18;" 
d="M228 46h345v359h-345v-359zM838 46v-46h-778v46h121v615q153 17 277.5 41.5t224.5 57.5l25 -44q-104 -30 -223 -54.5t-257 -39.5v-169h570v-48h-176v-359h216z" />
    <glyph glyph-name="cid1264" unicode="&#x4e19;" 
d="M432 353q-57 -149 -189 -241l-36 32q173 115 209 340h-255v-528h-47v575h309q1 19 2 37t1 36v72h-372v47h790v-47h-369v-72q-2 -19 -2.5 -36.5t-2.5 -36.5h316v-477q0 -92 -83 -92h-107l-14 49l105 -3q51 0 51 57v419h-272q-9 -48 -21 -89q67 -47 126 -102.5t114 -121.5
l-28 -41q-54 69 -110.5 125t-114.5 98z" />
    <glyph glyph-name="cid1265" unicode="&#x4e1a;" 
d="M375 765v-719h146v719h48v-719h275v-48h-790v48h275v719h46zM816 592q-54 -238 -138 -414l-45 17q41 81 76 183t65 226zM121 607q36 -93 67 -198.5t61 -224.5l-46 -11q-24 108 -56 213.5t-69 205.5z" />
    <glyph glyph-name="cid1266" unicode="&#x4e1b;" 
d="M841 45v-49h-783v49h783zM285 752q0 -72 -4 -137t-11 -122q51 -52 95 -103.5t79 -103.5l-34 -35q-56 91 -147 191l-7 -37q-41 -185 -178 -306l-30 39q59 53 99 119t60 148q17 69 23.5 155t7.5 192h47zM630 768q0 -63 -2.5 -119.5t-8.5 -107.5q65 -254 218 -401l-30 -36
q-69 68 -118.5 152t-84.5 186q-1 -9 -3 -16t-3 -15q-44 -192 -194 -315l-30 38q132 110 175 276q16 72 24.5 160.5t8.5 197.5h48z" />
    <glyph glyph-name="cid1267" unicode="&#x4e1c;" 
d="M297 661q27 60 51 124l51 -11q-12 -29 -24 -57.5t-25 -55.5h466v-48h-488q-69 -137 -153 -237h269v140h47v-140h289v-44h-289v-297q0 -77 -76 -77h-94l-10 47q23 -1 44 -2t43 -1q46 0 46 44v286h-320l-12 41q87 95 162 240h-201v48h224zM298 220q-90 -126 -222 -217
l-30 38q65 45 119.5 97t99.5 113zM641 251q122 -109 208 -217l-36 -36q-37 53 -88.5 108t-117.5 113z" />
    <glyph glyph-name="cid1268" unicode="&#x4e1d;" 
d="M844 45v-47h-790v47h790zM323 745q-45 -92 -90.5 -165t-87.5 -126q83 6 169 18q16 26 30.5 52.5t30.5 54.5l45 -15q-63 -117 -126 -204.5t-124 -146.5q69 6 133.5 15t123.5 21l10 -43q-151 -29 -339 -42l-11 46q90 49 199 218q-48 -6 -96 -11.5t-95 -10.5l-12 44
q6 2 11.5 6.5t9.5 12.5q101 128 174 294zM706 745q-46 -92 -90.5 -165.5t-90.5 -126.5q44 4 86.5 8.5t86.5 10.5q13 25 28.5 51t29.5 53l46 -16q-124 -229 -248 -347q73 6 139 14.5t129 20.5l9 -44q-154 -24 -347 -38l-9 46q43 23 92.5 77t103.5 139q-51 -6 -98.5 -11.5
t-95.5 -11.5l-11 45q11 6 21 19q100 127 172 296z" />
    <glyph glyph-name="cid14992" unicode="&#x4e1f;" 
d="M808 733v-47h-335v-147h298v-46h-298v-145h378v-47h-476q-99 -196 -174 -273q123 8 245.5 19.5t243.5 26.5q-24 34 -49 67.5t-54 67.5l38 25q122 -147 184 -251l-40 -29q-12 19 -24.5 39t-24.5 41q-136 -17 -280.5 -30.5t-303.5 -23.5l-11 46q8 1 11 3q71 50 188 272
h-276v47h377v145h-298v46h298v147h-331v47h714z" />
    <glyph glyph-name="cid14994" unicode="&#x4e21;" 
d="M52 679v48h794v-48h-373v-118h331v-511q0 -80 -76 -80h-95l-12 46l91 -1q43 0 43 46v453h-282v-328h137v228h49v-274h-418v268h49v-222h134v328h-282v-548h-48v595h330v118h-372z" />
    <glyph glyph-name="cid1270" unicode="&#x4e22;" 
d="M787 722q-67 -16 -145 -27t-169 -18v-138h298v-46h-298v-145h378v-47h-476q-104 -197 -179 -273q246 14 491 48q-23 33 -49 66t-55 67l39 25q61 -72 106.5 -134.5t78.5 -116.5l-41 -29q-12 19 -24 39t-25 41q-135 -17 -280.5 -30.5t-304.5 -23.5l-11 46q4 1 11 3
q73 51 192 272h-276v47h377v145h-298v46h298v133q-72 -4 -150.5 -6t-163.5 -2l-15 42q206 0 371.5 14.5t297.5 41.5z" />
    <glyph glyph-name="cid1271" unicode="&#x4e24;" 
d="M843 729v-48h-248v-154h202v-482q0 -80 -73 -80h-92l-12 47l88 -2q40 0 40 44v427h-154q-2 -23 -3.5 -43.5t-3.5 -40.5q32 -50 65.5 -105.5t67.5 -119.5l-30 -43q-34 68 -61 121.5t-50 94.5q-16 -84 -46 -148.5t-74 -112.5l-37 32q114 119 126 365h-204q-3 -54 -10 -98
q26 -36 53.5 -76.5t56.5 -86.5l-28 -40q-52 100 -92 157q-31 -144 -109 -232l-38 33q108 114 121 343h-148v-522h-48v568h198q0 5 0.5 11t0.5 12v131h-246v48h788zM549 527v154h-203v-131q0 -6 -0.5 -12t-0.5 -11h204z" />
    <glyph glyph-name="cid1272" unicode="&#x4e25;" 
d="M811 736v-46h-240v-239h260v-46h-649v-124q-6 -204 -109 -326l-37 33q93 106 97 293v170h231v239h-240v46h687zM525 451v239h-115v-239h115zM755 637q-26 -84 -65 -147l-40 15q19 28 34.5 63.5t29.5 79.5zM210 643q20 -32 37.5 -66.5t34.5 -70.5l-41 -19
q-15 41 -34.5 76.5t-38.5 67.5z" />
    <glyph glyph-name="cid14996" unicode="&#x4e26;" 
d="M68 554v46h478q27 40 51 83t44 89l47 -16q-40 -92 -89 -156h232v-46h-257v-520h272v-47h-792v47h269v520h-255zM527 34v520h-157v-520h157zM165 460q47 -136 81 -295l-44 -10q-17 85 -37 157.5t-43 138.5zM781 453q-18 -86 -40.5 -160.5t-50.5 -140.5l-45 16
q27 58 49.5 132t40.5 164zM261 772q25 -33 48.5 -68t45.5 -72l-43 -21q-45 79 -93 141z" />
    <glyph glyph-name="cid1273" unicode="&#x4e27;" 
d="M424 666v112h49v-112h335v-44h-335v-246h369v-46h-397q28 -85 103 -156q100 35 188 117l32 -32q-82 -75 -184 -117q102 -82 264 -138l-28 -46q-351 135 -424 372h-156v-300q55 15 102 31t85 35l10 -45q-52 -23 -115 -43.5t-137 -38.5l-14 45q22 11 22 39v277h-137v46h368
v246h-344v44h344zM186 585q26 -35 47.5 -74t42.5 -81l-40 -22q-22 45 -43.5 84t-44.5 73zM750 566q-37 -82 -93 -158l-38 21q57 78 91 156z" />
    <glyph glyph-name="cid1275" unicode="&#x4e2a;" 
d="M473 511v-554h-49v554h49zM471 774q112 -188 391 -333l-28 -44q-259 134 -386 331q-151 -217 -384 -335l-29 43q254 129 391 338h45z" />
    <glyph glyph-name="cid1276" unicode="&#x4e2b;" 
d="M782 747q-127 -189 -304 -317v-473h-48v497q198 136 312 322zM172 760q148 -146 226 -252l-41 -28q-83 117 -225 255z" />
    <glyph glyph-name="cid1278" unicode="&#x4e2d;" 
d="M424 780h49v-167h327v-413h-50v60h-277v-310h-49v310h-275v-60h-49v413h324v167zM149 308h275v256h-275v-256zM473 308h277v256h-277v-256z" />
    <glyph glyph-name="cid1279" unicode="&#x4e30;" 
d="M134 436h290v161h-331v47h331v129h49v-129h340v-47h-340v-161h300v-47h-300v-160h362v-47h-362v-225h-49v225h-358v47h358v160h-290v47z" />
    <glyph glyph-name="cid1280" unicode="&#x4e32;" 
d="M142 677h282v101h49v-101h283v-218h-283v-100h318v-237h-318v-165h-49v165h-315v237h315v100h-282v218zM708 503v132h-235v-132h235zM424 503v132h-233v-132h233zM743 166v151h-270v-151h270zM424 166v151h-267v-151h267z" />
    <glyph glyph-name="cid1281" unicode="&#x4e34;" 
d="M284 773v-815h-48v815h48zM816 -38h-46v51h-334v-51h-48v406h428v-406zM581 59v263h-145v-263h145zM627 59h143v263h-143v-263zM592 570q77 -78 120 -139l-37 -26q-23 32 -53 67t-69 75zM127 660v-553h-46v553h46zM472 612q-49 -94 -113 -169l-35 40q54 59 94.5 133
t71.5 165l48 -12q-10 -29 -20 -55.5t-23 -53.5h351v-48h-374z" />
    <glyph glyph-name="cid1282" unicode="&#x4e36;" 
d="M326 540q188 -166 314 -328l-37 -37q-113 155 -313 331z" />
    <glyph glyph-name="cid1283" unicode="&#x4e38;" 
d="M342 603v167h48v-167h277l-17 -544q0 -40 30 -40h62q22 0 37 19q19 24 24 162l47 -13q-11 -158 -38 -189q-25 -25 -67 -25h-76q-67 0 -67 74l15 508h-228q-7 -144 -36 -254q37 -29 74 -59.5t71 -63.5l-29 -41q-33 33 -66.5 61t-66.5 55q-5 -16 -11.5 -31t-12.5 -29
q-72 -150 -238 -233l-27 44q163 83 231 228q6 12 9.5 25t8.5 27q-41 30 -82 56.5t-82 48.5l26 38q40 -22 78 -45.5t74 -49.5q24 99 31 223h-243v48h244z" />
    <glyph glyph-name="cid1284" unicode="&#x4e39;" 
d="M231 369v366h476v-366h137v-47h-137v-280q0 -75 -77 -75h-104l-12 48q27 -2 53 -2h49q41 0 41 48v261h-378q-5 -114 -38 -205t-93 -163l-37 34q108 132 119 334h-176v47h177zM657 689h-377v-320h377v320zM418 624q83 -94 129 -166l-39 -28q-49 79 -129 170z" />
    <glyph glyph-name="cid1285" unicode="&#x4e3a;" 
d="M159 752q39 -41 70 -78t53 -68l-41 -26q-48 69 -119 144zM469 372q99 -106 154 -190l-42 -30q-54 89 -151 195zM424 776v-93q0 -35 -1.5 -68.5t-3.5 -64.5h372q0 -192 -8.5 -312t-25.5 -171q-36 -104 -125 -104q-32 0 -58 1t-48 2l-13 48q33 -2 62 -4t55 -2q87 7 99 159
q5 78 9 160.5t4 173.5h-328q-23 -171 -75 -285q-79 -164 -263 -257l-28 44q180 90 257 252q21 53 36 113.5t24 132.5h-286v49h291q6 65 8 133v93h46z" />
    <glyph glyph-name="cid1286" unicode="&#x4e3b;" 
d="M84 568v49h730v-49h-341v-230h298v-46h-298v-257h373v-47h-792v47h370v257h-297v46h297v230h-340zM424 778q17 -39 30 -73.5t22 -64.5l-43 -16q-13 36 -27 71.5t-31 67.5z" />
    <glyph glyph-name="cid1287" unicode="&#x4e3d;" 
d="M839 722v-45h-781v45h781zM255 -42l-13 45l66 -2q37 0 37 37v484h-197v-566h-46v611h289v-538q0 -71 -68 -71h-68zM214 415q29 -48 55 -97.5t48 -103.5l-39 -17q-48 117 -103 203zM662 -42l-12 45l60 -2q40 0 40 40v481h-200v-566h-46v611h293v-535q0 -74 -72 -74h-63z
M617 416q31 -48 56.5 -98.5t48.5 -105.5l-39 -17q-50 119 -104 206z" />
    <glyph glyph-name="cid1288" unicode="&#x4e3e;" 
d="M198 766q50 -74 88 -160l-42 -22q-41 93 -85 163zM409 778q22 -38 42 -77.5t40 -82.5l-42 -20q-37 88 -81 160zM69 512v48h512q67 103 115 222l46 -17q-28 -62 -55 -113t-57 -92h200v-48h-208q72 -123 240 -198l-21 -45q-189 90 -267 243h-257q-63 -138 -251 -240l-30 44
q177 86 235 196h-202zM424 350v106h49v-106h213v-48h-213v-126h331v-46h-331v-173h-49v173h-330v46h330v126h-211v48h211z" />
    <glyph glyph-name="cid1290" unicode="&#x4e43;" 
d="M680 727v-25q-12 -67 -28 -133t-37 -135h210v-24q-5 -119 -11.5 -196t-14.5 -116q-18 -76 -56 -105q-40 -26 -123 -26h-104l-15 49q60 -3 105 -3q76 0 103 21q29 22 43 82q11 58 24 273h-225q48 151 76 289h-270q-5 -152 -21.5 -263.5t-42.5 -182.5q-61 -158 -203 -269
l-33 42q135 103 189 246q26 69 42.5 174.5t20.5 252.5h-215v49h586z" />
    <glyph glyph-name="cid1291" unicode="&#x4e45;" 
d="M479 288q-166 -224 -413 -331l-30 47q372 153 557 585h-292q-82 -130 -216 -231l-31 42q208 155 282 384l51 -6q-13 -38 -27 -73t-31 -68h321v-39q-59 -149 -139 -268q103 -208 347 -327l-37 -44q-239 132 -342 329z" />
    <glyph glyph-name="cid1293" unicode="&#x4e48;" 
d="M631 346q114 -171 194 -358l-46 -22q-10 24 -20.5 46.5t-20.5 44.5q-238 -42 -580 -63l-13 49q11 5 21.5 13t23.5 18q165 160 387 541l49 -24q-126 -209 -223 -344t-167 -200q127 10 246.5 23t234.5 29q-32 65 -65 122t-68 109zM445 766q-136 -285 -368 -476l-33 40
q219 177 348 449z" />
    <glyph glyph-name="cid1294" unicode="&#x4e49;" 
d="M367 773q44 -47 83 -101.5t72 -114.5l-44 -23q-35 64 -74 118t-83 103zM746 723q-62 -318 -254 -514q156 -133 364 -206l-30 -45q-212 80 -369 215q-154 -139 -379 -215l-28 45q111 35 202 86t167 119q-178 168 -281 416l44 25q97 -245 272 -407q187 189 245 492z" />
    <glyph glyph-name="cid1295" unicode="&#x4e4b;" 
d="M400 779q23 -36 44 -77t41 -89h283v-36q-158 -298 -470 -460q8 -5 12 -11q59 -74 158 -80q61 -4 178 -4q72 0 198 4l-11 -49h-179q-59 0 -100 0.5t-67 1.5q-143 1 -221 108q-24 30 -42 30q-42 0 -121 -158l-40 28q86 179 163 179q16 0 29 -9l8 -6q294 150 445 414h-594
v48h319q-20 44 -42 82.5t-46 73.5z" />
    <glyph glyph-name="cid1296" unicode="&#x4e4c;" 
d="M632 163v-46h-579v46h579zM556 2q27 -1 53.5 -1h50.5q46 0 60 37q13 38 16 242h-549v392h172q30 57 43 113l51 -6q-9 -30 -19.5 -55.5t-25.5 -51.5h280q-1 -173 -24 -223q-24 -46 -115 -46h-50l-14 44q18 -1 36 -1.5t37 -0.5q60 0 70 40q13 45 13 142h-404v-302h547
q-2 -240 -23 -308q-23 -60 -101 -60h-90z" />
    <glyph glyph-name="cid1297" unicode="&#x4e4d;" 
d="M261 592q-36 -65 -78.5 -121.5t-89.5 -107.5l-33 39q147 151 234 379l48 -12q-12 -33 -26 -66t-30 -63h553v-48h-415v-166h347v-46h-347v-167h372v-47h-372v-208h-48v634h-115z" />
    <glyph glyph-name="cid1298" unicode="&#x4e4e;" 
d="M439 345v305q-75 -6 -157.5 -9.5t-171.5 -3.5l-16 46q412 0 680 72l24 -44q-132 -36 -311 -56v-310h362v-48h-362v-256q0 -79 -73 -79h-123l-9 46l58 -2t57 -1q42 0 42 49v243h-386v48h386zM744 604q-38 -117 -94 -204l-45 16q26 40 49 89.5t43 111.5zM213 580
q26 -40 48.5 -83t41.5 -90l-42 -18q-42 99 -93 177z" />
    <glyph glyph-name="cid1299" unicode="&#x4e4f;" 
d="M804 721q-266 -66 -719 -66l-14 46q217 0 393.5 16t314.5 48zM416 615q40 -57 74 -131h256v-42q-80 -110 -190.5 -194.5t-253.5 -148.5q54 -72 135 -73q22 0 47.5 -0.5t54.5 -0.5q71 0 147.5 0.5t159.5 1.5l-10 -50h-290q-30 0 -55 0.5t-47 1.5q-82 6 -125 37
q-31 21 -61 68q-15 13 -26 13q-45 0 -120 -141l-38 32q82 163 159 163q19 0 32 -10l3 -3q269 113 417 299h-569v47h325q-39 71 -77 124z" />
    <glyph glyph-name="cid1300" unicode="&#x4e50;" 
d="M102 370q23 96 37.5 179.5t23.5 156.5q10 -2 19.5 -3t20.5 -1q323 1 526 65l24 -43q-105 -30 -242 -45.5t-308 -18.5q-12 -69 -22.5 -129t-23.5 -113h276v183h47v-183h335v-48h-335v-332q0 -78 -76 -78h-119l-11 47q59 -3 113 -3q46 0 46 46v320h-331zM263 271
q-36 -78 -77 -147.5t-91 -128.5l-42 31q49 56 90.5 121.5t75.5 144.5zM657 298q87 -131 163 -285l-45 -24q-39 81 -79 152.5t-81 135.5z" />
    <glyph glyph-name="cid1301" unicode="&#x4e52;" 
d="M252 252h306v238h-306v-238zM203 687q292 25 481 79l26 -44q-100 -24 -213 -42.5t-245 -30.5v-112h523v-47h-169v-238h232v-46h-781v46h146v435zM358 155q-102 -116 -253 -201l-32 38q152 85 248 196z" />
    <glyph glyph-name="cid1302" unicode="&#x4e53;" 
d="M259 246h307v238h-307v-238zM210 688q307 24 502 75l24 -42q-206 -49 -477 -72v-119h525v-46h-169v-238h234v-48h-795v48h156v442zM570 180q73 -50 134 -99t111 -98l-36 -37q-88 94 -242 202z" />
    <glyph glyph-name="cid1303" unicode="&#x4e54;" 
d="M335 532q43 67 73 136q-64 -4 -132.5 -6.5t-143.5 -2.5l-16 44q192 0 346.5 17.5t275.5 50.5l24 -40q-64 -20 -139 -34t-162 -22q-29 -77 -70 -143h440v-48h-242q78 -118 269 -210l-31 -40q-208 111 -288 250h-180q-109 -152 -287 -254l-30 39q160 91 258 215h-233v48
h268zM616 360v-405h-50v405h50zM337 362v-58q-1 -140 -53 -224q-52 -77 -169 -122l-26 40q112 41 157 114q41 74 44 192v58h47z" />
    <glyph glyph-name="cid1305" unicode="&#x4e58;" 
d="M649 260q-79 0 -79 78v178h47v-82q107 16 190 49l16 -42q-91 -34 -206 -48v-45q0 -46 45 -46h84q24 0 33 10q13 11 18 65l45 -14q-7 -74 -29 -89q-19 -14 -58 -14h-106zM424 606v88q-65 -4 -135.5 -5.5t-146.5 -1.5l-15 44q366 1 602 43l24 -40q-61 -13 -131 -21.5
t-149 -15.5v-91h369v-46h-369v-238q147 -177 380 -272l-27 -46q-206 91 -353 256v-305h-49v300q-141 -156 -350 -254l-30 44q245 114 380 273v242h-369v46h369zM316 515v-266h-49v49q-41 -9 -88 -19t-102 -19l-13 44q55 9 105.5 16.5t97.5 17.5v76h-185v43h185v58h49z" />
    <glyph glyph-name="cid1306" unicode="&#x4e59;" 
d="M740 716v-44q-279 -208 -378 -292q-60 -52 -101.5 -95t-66.5 -79q-34 -58 -34 -96q0 -28 23 -49q27 -21 105 -21h362q80 1 114 40q33 39 33 179l47 -15q0 -153 -40 -203q-43 -47 -138 -47h-388q-95 0 -131 31q-40 32 -40 85q0 49 35 102q25 41 69 88t108 101
q122 106 336 267h-533v48h618z" />
    <glyph glyph-name="cid1308" unicode="&#x4e5d;" 
d="M381 773v-199h272v-516q0 -42 43 -42h55q41 0 52 56q2 32 4 65t2 69l46 -15q-7 -122 -14 -150q-16 -72 -89 -72h-65q-84 0 -84 81v476h-223q-10 -222 -74 -353q-73 -134 -235 -211l-27 45q79 38 135.5 89t88.5 117q56 123 64 313h-231v48h231v199h49z" />
    <glyph glyph-name="cid1309" unicode="&#x4e5e;" 
d="M295 768q-10 -26 -20.5 -52t-22.5 -50h546v-46h-570q-29 -48 -60 -91t-67 -80l-32 37q114 118 181 295zM697 484v-46q-310 -184 -419 -296q-49 -52 -50 -88q0 -33 48 -33h364q59 0 89 18q35 23 51 172l46 -17q-17 -156 -60 -188q-41 -31 -122 -31h-364q-105 0 -105 72
q0 57 78 135q55 54 146 117.5t221 138.5h-410v46h487z" />
    <glyph glyph-name="cid1310" unicode="&#x4e5f;" 
d="M491 780v-220l268 60q0 -261 -6 -316q-13 -92 -112 -92h-42l-12 46q18 0 34.5 -1t28.5 -1q51 0 60 76q3 28 3 228l-222 -51v-336h-48v326l-208 -46v-361q0 -60 62 -60h403q55 0 81 20q23 21 32 148l45 -14q-10 -140 -40 -172q-30 -30 -110 -30h-422q-100 0 -100 101v358
l-149 -33v47l149 35v216h49v-207l208 48v231h48z" />
    <glyph glyph-name="cid1311" unicode="&#x4e60;" 
d="M589 302q-96 -59 -213.5 -111.5t-261.5 -99.5l-19 46q142 43 262 95t220 115zM210 568q58 -44 106.5 -87.5t87.5 -86.5l-34 -35q-70 83 -195 176zM468 8q36 0 72.5 -0.5t74.5 -0.5q42 0 65 39q12 19 18.5 67t9.5 123q0 95 3 431h-592v47h639q-2 -216 -3.5 -343t-3.5 -167
q-5 -139 -30 -191q-27 -51 -96 -51h-145z" />
    <glyph glyph-name="cid1312" unicode="&#x4e61;" 
d="M781 429q-28 -195 -177 -313q-133 -108 -465 -167l-20 47q308 54 446 153q60 46 97 102q-96 -13 -217 -25t-270 -20l-15 42q150 73 313 228q-82 -8 -163 -15t-162 -10l-13 43q82 62 151.5 135.5t128.5 159.5l50 -20q-112 -154 -257 -272q78 4 155.5 9.5t155.5 15.5
q33 33 66 68.5t66 74.5l48 -22q-123 -139 -231 -235.5t-203 -153.5q126 10 231.5 21t193.5 23q16 32 26 65.5t17 70.5z" />
    <glyph glyph-name="cid1313" unicode="&#x4e66;" 
d="M423 780v-163h264v-25l-20 -216h130q0 -127 -10 -200t-31 -95q-17 -19 -53 -28q-13 -2 -26 -3.5t-27 -2.5h-58l-15 46h80q46 1 66 24q21 26 27 210h-327v-372h-49v372h-326v49h326v192h-273v49h273v163h49zM620 376l19 192h-216v-192h197zM653 773q101 -51 184 -129
l-26 -38q-45 40 -90 73.5t-93 57.5z" />
    <glyph glyph-name="cid1315" unicode="&#x4e70;" 
d="M134 486q105 -44 189 -103l-25 -38q-90 69 -187 106zM219 613q99 -43 180 -104l-25 -39q-43 35 -87.5 61.5t-90.5 47.5zM524 622v-189q0 -78 -20 -146h342v-49h-358q-6 -13 -11.5 -25t-10.5 -23q100 -46 189.5 -94.5t170.5 -103.5l-35 -36q-85 57 -172 105.5t-178 92.5
q-6 -9 -11 -15.5t-10 -12.5q-96 -105 -319 -167l-28 43q222 58 315 161q28 34 48 75h-369v49h387q11 33 16 69.5t7 76.5v189h47zM779 719v-32q-10 -42 -23.5 -82t-30.5 -79l-46 13q17 29 29 62.5t21 69.5h-627v48h677z" />
    <glyph glyph-name="cid1316" unicode="&#x4e71;" 
d="M240 515v153q-76 -7 -162 -7l-17 44q114 1 206 13.5t165 37.5l22 -42q-68 -25 -164 -38v-161h194v-46h-194v-166h155v-341h-48v48h-261v-48h-48v341h152v166h-196v46h196zM397 57v201h-261v-201h261zM621 -30q-72 0 -72 76v716h48v-705q0 -41 39 -41h100q33 0 48 22
q15 26 21 159l48 -14q-11 -151 -37 -183q-20 -30 -70 -30h-125z" />
    <glyph glyph-name="cid1317" unicode="&#x4e73;" 
d="M629 -30q-72 0 -72 87v705h48v-695q0 -51 39 -51h101q29 0 43 21q16 26 22 159l47 -16q-8 -145 -33 -180q-23 -30 -70 -30h-125zM487 217q-42 -10 -85 -19.5t-88 -17.5v-146q0 -72 -73 -72h-93l-14 46q27 -1 49.5 -1.5t38.5 -0.5q43 0 43 40v125q-53 -9 -109 -18
t-114 -15l-8 47q62 8 120 16t111 17v98q29 20 58.5 42t62.5 47h-310v46h376v-37q-31 -30 -65 -58t-73 -55v-76q91 19 173 39v-47zM483 663q-30 -100 -73 -171l-43 14q21 34 38.5 75.5t33.5 93.5zM255 650q16 -37 28.5 -70t22.5 -62l-42 -17q-11 36 -23.5 70.5t-28.5 66.5z
M96 638q16 -29 29.5 -63.5t26.5 -71.5l-42 -10q-26 69 -56 131zM493 728q-169 -47 -438 -47l-15 41q132 0 239 11.5t191 34.5z" />
    <glyph glyph-name="cid1318" unicode="&#x4e7e;" 
d="M217 686v88h48v-88h168v-45h-168v-89h136v-314h-136v-91h170v-43h-170v-150h-48v150h-177v43h177v91h-134v314h134v89h-164v45h164zM355 376h-225v-95h225v95zM355 418v91h-225v-91h225zM536 606q-33 -61 -74 -109l-30 36q80 96 126 245l46 -11q-10 -31 -21.5 -59.5
t-24.5 -55.5h288v-46h-310zM798 456v-45q-108 -111 -173 -197q-55 -66 -78 -107q-20 -33 -20 -50q0 -41 53 -41h148q35 0 51 23q17 23 25 154l44 -17q-11 -147 -37 -174q-27 -30 -83 -32h-158q-94 0 -94 77q0 27 20 62q22 41 90 128q58 76 147 171h-251v48h316z" />
    <glyph glyph-name="cid15042" unicode="&#x4e82;" 
d="M350 363q36 -42 62 -95l-32 -14q-5 10 -9.5 17.5t-8.5 17.5q-62 -14 -186 -24l-4 32q13 4 29 25q8 12 16.5 26t15.5 29h-108v-417h-45v458h170q-21 16 -45 33.5t-53 32.5l28 25q33 -21 62.5 -40.5t53.5 -39.5q69 40 131 93h-344v38h49q-10 21 -22 41.5t-29 39.5l40 14
q28 -40 52 -95h89q-19 52 -40 98l42 7q22 -50 41 -105h67q20 27 36.5 56t30.5 61l39 -14q-29 -60 -63 -103h72v-33q-30 -30 -63.5 -57t-70.5 -52h142v-381q0 -74 -64 -74h-84l-12 45l80 -3q37 0 37 41v331h-178q-14 -26 -26 -45t-22 -32q33 3 62 7.5t56 8.5
q-7 10 -13.5 19.5t-12.5 18.5zM207 180q25 -14 47.5 -28t43.5 -27q16 16 29 32t21 34h-174v34h221v-28q-13 -26 -29 -50.5t-35 -42.5q19 -14 37 -27.5t33 -25.5l-26 -25q-16 12 -33.5 26.5t-35.5 27.5q-26 -21 -56 -38t-63 -34l-23 32q33 14 60 29t50 31q-22 15 -44.5 28.5
t-47.5 27.5zM499 731q-162 -50 -433 -50l-14 40q260 2 426 46zM653 -30q-74 0 -74 77v718h49v-708q0 -42 38 -42h87q22 0 34 16q16 27 22 169l47 -14q-9 -154 -31 -190q-18 -26 -60 -26h-112z" />
    <glyph glyph-name="cid1319" unicode="&#x4e86;" 
d="M439 475q72 41 138 90t130 104h-602v47h669v-47q-129 -115 -287 -218v-413q0 -76 -75 -76q-42 0 -78 1.5t-66 2.5l-12 48q32 -2 67.5 -4t74.5 -2q41 0 41 39v428z" />
    <glyph glyph-name="cid1320" unicode="&#x4e88;" 
d="M303 624q90 -58 159 -112q106 77 187 175h-488v47h550v-41q-93 -120 -212 -211l33 -29h281v-42q-33 -54 -72.5 -100.5t-87.5 -88.5l-37 33q74 61 142 152h-276v-372q0 -75 -74 -75h-129l-11 47q64 -3 122 -3q43 0 43 43v360h-356v46h388q-80 68 -195 138z" />
    <glyph glyph-name="cid1321" unicode="&#x4e89;" 
d="M459 172v-134q0 -76 -77 -76h-133l-11 48q33 -2 64.5 -3t62.5 -1q47 0 47 45v121h-248v46h248v118h-356v46h356v115h-231v45h257q73 46 139 106h-309q-36 -42 -77 -79t-89 -70l-31 35q145 97 232 245l50 -12q-13 -20 -24.5 -38t-23.5 -36h340v-37q-69 -69 -133 -114h212
v-160h122v-46h-122v-164h-265zM459 382h217v115h-217v-115zM459 218h217v118h-217v-118z" />
    <glyph glyph-name="cid1322" unicode="&#x4e8b;" 
d="M424 611v66h-357v42h357v59h49v-59h359v-42h-359v-66h266v-165h-266v-66h279v-124h105v-39h-105v-120h-279v-68q0 -69 -72 -69h-111l-8 46q52 -3 103 -3q39 0 39 37v57h-301v41h301v79h-382v39h382v84h-300v40h300v66h-265v165h265zM691 573h-218v-90h218v90zM424 573
h-217v-90h217v90zM473 256h233v84h-233v-84zM473 217v-79h233v79h-233z" />
    <glyph glyph-name="cid1323" unicode="&#x4e8c;" 
d="M133 668h632v-46h-632v46zM50 105h797v-48h-797v48z" />
    <glyph glyph-name="cid1325" unicode="&#x4e8e;" 
d="M781 736v-47h-299v-263h361v-49h-361v-330q0 -82 -85 -82h-137l-11 48q34 -2 66.5 -3.5t65.5 -1.5q52 0 52 52v317h-378v49h378v263h-322v47h670z" />
    <glyph glyph-name="cid1326" unicode="&#x4e8f;" 
d="M755 722v-46h-610v46h610zM835 518v-48h-509l-55 -149h452q-15 -251 -54 -304q-40 -51 -161 -51q-43 1 -106 3l-13 44q33 -2 62 -3.5t57 -1.5q86 0 118 35q30 37 46 233h-463l68 194h-214v48h772z" />
    <glyph glyph-name="cid1327" unicode="&#x4e91;" 
d="M771 719v-48h-635v48h635zM851 466v-48h-436q-67 -139 -123 -231t-105 -141q131 8 259.5 19t258.5 27q-53 96 -118 194l40 24q63 -96 111 -177.5t83 -152.5l-43 -30q-12 24 -23.5 48t-25.5 49q-138 -16 -288.5 -29t-315.5 -23l-13 47q11 4 13 6q90 68 238 370h-314v48
h802z" />
    <glyph glyph-name="cid1328" unicode="&#x4e92;" 
d="M69 733h759v-49h-480l-39 -163h391l-74 -484h227v-48h-799v48h525l28 176h-422l115 471h-231v49zM615 259l35 216h-352l-54 -216h371z" />
    <glyph glyph-name="cid1330" unicode="&#x4e94;" 
d="M132 431h207l50 240h-304v48h727v-48h-375l-50 -240h309v-386h151v-47h-794v47h205l71 339h-197v47zM306 45h339v339h-267z" />
    <glyph glyph-name="cid1331" unicode="&#x4e95;" 
d="M272 597v175h48v-175h259v175h48v-175h185v-48h-185v-228h223v-50h-223v-310h-48v310h-270q-14 -82 -42 -141q-50 -103 -162 -160l-28 46q105 55 152 151q20 49 30 104h-211v50h217q6 48 7 101v127h-187v48h187zM320 422q0 -27 -1 -52.5t-3 -48.5h263v228h-259v-127z" />
    <glyph glyph-name="cid1333" unicode="&#x4e9a;" 
d="M816 719v-48h-247v-625h275v-46h-790v46h275v625h-248v48h735zM521 46v625h-146v-625h146zM789 527q-23 -104 -53 -193t-67 -167l-43 17q69 139 120 354zM146 527q33 -76 61.5 -161.5t54.5 -181.5l-43 -13q-22 89 -52 174t-65 167z" />
    <glyph glyph-name="cid1334" unicode="&#x4e9b;" 
d="M323 772v-157h141v-47h-141v-185q39 8 76 14.5t73 16.5v-47q-99 -22 -204.5 -39t-219.5 -31l-13 46q23 3 44.5 4.5t42.5 3.5v333h48v-326l106 16v398h47zM831 656q-57 -30 -122.5 -55.5t-140.5 -45.5v-152q0 -41 36 -41h117q34 0 52 14q18 23 26 116l45 -16
q-10 -111 -37 -139q-23 -22 -77 -22h-141q-68 0 -68 78v378h47v-170q64 18 123 41t111 52zM740 221v-47h-583v47h583zM838 35v-47h-778v47h778z" />
    <glyph glyph-name="cid15054" unicode="&#x4e9e;" 
d="M68 735h763v-47h-251v-174h200v-295h-201v-184h265v-47h-788v47h262v183h-199v296h199v174h-250v47zM530 35v231h202v202h-200v220h-166v-219h-199v-204h199v-230h164z" />
    <glyph glyph-name="cid1335" unicode="&#x4e9f;" 
d="M321 528v-302h-223v302h223zM277 483h-135v-212h135v212zM844 34v-46h-788v46h788zM562 443q64 -52 118 -101q48 68 75 154h-214v43h263v-36q-31 -112 -87 -195q31 -33 60.5 -64.5t55.5 -63.5l-34 -35q-24 31 -52 62t-60 62q-30 -36 -64 -67t-74 -58l-30 40
q39 26 73 55.5t61 63.5q-57 55 -124 111zM696 735v-46q-51 -34 -106.5 -68t-119.5 -67v-387q0 -68 -65 -68h-102l-13 46q23 0 47.5 -0.5t50.5 -0.5q33 0 33 40v396q72 34 123 61t83 48h-465v46h534z" />
    <glyph glyph-name="cid1337" unicode="&#x4ea1;" 
d="M449 612q-33 71 -87 138l47 18q50 -64 93 -156h341v-48h-615v-518h577v-48h-628v566h-123v48h395z" />
    <glyph glyph-name="cid1339" unicode="&#x4ea4;" 
d="M436 663q-13 29 -26.5 56.5t-29.5 52.5l53 9q15 -25 28.5 -55t26.5 -63h356v-46h-789v46h381zM587 577q75 -61 137 -119.5t113 -120.5l-36 -36q-46 58 -108 118.5t-141 125.5zM653 392q-67 -127 -164 -220q147 -112 364 -168l-29 -45q-224 62 -372 180
q-150 -126 -372 -183l-30 44q110 28 200.5 70t163.5 101q-52 46 -93.5 98t-74.5 111l42 24q31 -58 71.5 -108t90.5 -94q99 90 157 209zM342 545q-102 -133 -253 -232l-32 40q148 95 250 224z" />
    <glyph glyph-name="cid1340" unicode="&#x4ea5;" 
d="M566 166q-91 -72 -203 -123.5t-249 -82.5l-29 44q460 101 638 415l43 -19q-65 -114 -163 -204q68 -52 123 -103t102 -102l-38 -36q-83 99 -224 211zM659 547q-163 -299 -550 -392l-30 42q234 55 382 179q-143 -14 -302 -25l-12 46q4 3 6.5 3.5t4.5 1.5q69 43 184 224
h-285v49h379q-12 26 -24 50.5t-25 46.5l54 9q25 -45 47 -106h354v-49h-446q-100 -163 -172 -227q72 4 143.5 10.5t144.5 14.5q31 33 56.5 68t47.5 73z" />
    <glyph glyph-name="cid1341" unicode="&#x4ea6;" 
d="M224 482q-49 -192 -135 -335l-44 28q88 138 131 318zM702 493q84 -156 146 -332l-47 -22q-33 97 -69 180.5t-76 156.5zM430 772q14 -25 26.5 -54.5t25.5 -62.5h352v-49h-252v-559q0 -84 -84 -84h-98l-10 48q48 -4 90 -4q54 0 54 52v547h-160v-146q-4 -345 -215 -503
l-36 32q198 146 205 471v146h-262v49h364q-23 59 -55 110z" />
    <glyph glyph-name="cid1342" unicode="&#x4ea7;" 
d="M445 788q13 -23 23 -50.5t21 -58.5h319v-47h-159q-9 -40 -21 -77t-29 -74h227v-48h-650v-141q-4 -208 -99 -335l-37 33q82 107 87 302v189h184l-41 151h-168v47h339q-23 58 -46 101zM552 481q35 72 48 151h-281l43 -151h190z" />
    <glyph glyph-name="cid1343" unicode="&#x4ea8;" 
d="M713 573v-178h-530v178h530zM666 530h-435v-93h435v93zM436 782q10 -20 20.5 -43.5t20.5 -49.5h355v-46h-764v46h359q-19 47 -45 83zM437 188q52 19 107.5 39.5t117.5 46.5h-552v43h649v-36q-123 -60 -275 -116v-130q0 -75 -70 -75h-123l-13 46q36 -2 65.5 -2h51.5
q42 0 42 46v138z" />
    <glyph glyph-name="cid1344" unicode="&#x4ea9;" 
d="M762 -45h-49v53h-524v-53h-49v544h622v-544zM426 56v173h-237v-173h237zM713 56v173h-238v-173h238zM426 276v176h-237v-176h237zM475 276h238v176h-238v-176zM437 660q-23 55 -55 102l45 18q17 -24 31.5 -55t28.5 -65h356v-47h-788v47h382z" />
    <glyph glyph-name="cid1345" unicode="&#x4eab;" 
d="M712 583v-171h-526v171h526zM665 539h-430v-85h430v85zM431 778q11 -19 22 -40t20 -45h364v-45h-776v45h360q-10 21 -21.5 40t-24.5 35zM441 171v42l102.5 41t110.5 47h-526v44h624v-35q-58 -30 -123.5 -58t-140.5 -55v-26h368v-46h-368v-96q0 -72 -70 -72h-128l-13 44
q39 -1 68.5 -2t52.5 -1q43 0 43 44v83h-398v46h398z" />
    <glyph glyph-name="cid1346" unicode="&#x4eac;" 
d="M728 527v-238h-251v-251q0 -75 -75 -75h-95l-12 48q48 -4 91 -4q41 0 41 44v238h-255v238h556zM678 479h-459v-142h459v142zM427 781q14 -24 24 -51t21 -58h374v-45h-793v45h370q-9 29 -20.5 53t-23.5 47zM636 220q127 -103 211 -207l-36 -35q-38 50 -90 102.5
t-117 107.5zM297 188q-43 -60 -97 -113t-120 -100l-31 41q126 84 213 204z" />
    <glyph glyph-name="cid1347" unicode="&#x4ead;" 
d="M708 233v-44h-233v-153q0 -75 -76 -75h-91l-11 45q45 -3 85 -3q44 0 44 43v143h-237v44h519zM427 693q-8 22 -18 42.5t-19 36.5l51 10q18 -37 34 -89h349v-41h-750v41h353zM698 583v-157h-497v157h497zM650 542h-401v-76h401v76zM812 208h-49v105h-628v-107h-50v148h727
v-146z" />
    <glyph glyph-name="cid1348" unicode="&#x4eae;" 
d="M610 242v-201q0 -34 40 -34h81q23 0 35 10q18 13 25 115l45 -15q-10 -93 -26 -123q-20 -29 -72 -29h-100q-75 0 -75 69v164h-226v-31q-4 -172 -254 -212l-28 40q235 37 235 178v69h320zM433 700q-23 40 -49 72l52 10q12 -19 23.5 -39.5t23.5 -42.5h348v-44h-763v44h365z
M691 586v-162h-484v162h484zM643 546h-388v-83h388v83zM805 206h-48v107h-618v-111h-47v153h713v-149z" />
    <glyph glyph-name="cid1349" unicode="&#x4eb2;" 
d="M579 197q73 -35 139 -76t128 -92l-28 -41q-127 109 -265 173zM336 163q-104 -102 -265 -170l-22 45q156 59 258 158zM442 781q23 -47 37 -104h300v-46h-658v46h311q-20 54 -42 94zM290 459q-26 64 -62 118l46 15q34 -52 66 -133h222q19 34 36.5 68t29.5 71l47 -18
q-13 -33 -29 -64t-34 -57h210v-47h-345v-117h315v-46h-315v-220q0 -72 -78 -72h-101l-11 47q49 -3 95 -3q45 0 45 40v208h-322v46h322v117h-349v47h212z" />
    <glyph glyph-name="cid1350" unicode="&#x4eb3;" 
d="M815 145l-363 -28v-71q0 -38 35 -38h264q15 0 25 3t15 8q17 15 22 79l42 -13q-7 -79 -31 -102q-11 -5 -27 -9.5t-39 -4.5h-285q-69 0 -69 66v77l-330 -25l-5 42l335 26v82q-47 -3 -94.5 -6t-96.5 -6l-14 40q138 5 255.5 17t216.5 31l21 -38q-58 -10 -117 -18.5
t-123 -14.5v-83l356 28zM430 708q-9 18 -18.5 33.5t-19.5 30.5l53 10q21 -35 37 -74h348v-43h-761v43h361zM712 607v-147h-514v147h514zM666 567h-420v-69h420v69zM810 251h-47v108h-628v-125h-47v167h722v-150z" />
    <glyph glyph-name="cid1351" unicode="&#x4eb5;" 
d="M426 711q-8 18 -17.5 34.5t-20.5 33.5l48 7q18 -32 37 -75h373v-44h-793v44h373zM229 566v72h46v-72h120v-43h-120v-92q30 6 57 12t55 13v-42q-29 -7 -56.5 -12.5t-55.5 -10.5v-81q0 -69 -70 -69h-86l-10 43q20 -2 41 -3t40 -1q39 0 39 40v62q-38 -6 -76.5 -11t-78.5 -12
l-10 42q42 4 83.5 10t81.5 13v99h-150v43h150zM436 462q44 -16 86 -37q19 47 20 98h-112v43h113v72h48v-72h151v-147q0 -121 38 -121q28 2 41 102l35 -20q-9 -67 -29 -101q-22 -25 -48 -25q-34 0 -55 35q-13 17 -18 50t-5 80v104h-112q-2 -33 -8.5 -63t-18.5 -56
q29 -14 56 -30.5t53 -34.5l-25 -36q-54 39 -105 65q-45 -66 -121 -104l-33 28q73 36 115 97q-23 11 -45 20.5t-44 17.5zM421 242q-33 -28 -64 -50t-64 -41v-134q54 13 104 27.5t96 29.5l8 -40q-55 -19 -121.5 -36t-144.5 -35l-9 40q23 9 23 24v102q-40 -20 -85 -38t-100 -33
l-27 39q59 15 109 33.5t93 40.5q83 42 143 94zM759 228q-15 -20 -32 -37t-32 -30q-30 -23 -67 -42q48 -38 105 -66.5t128 -48.5l-27 -41q-129 41 -220 110t-145 173l37 21q35 -68 89 -119q38 18 67 41q32 27 60 62z" />
    <glyph glyph-name="cid1352" unicode="&#x4eba;" 
d="M473 773q0 -58 -1.5 -106.5t-3.5 -89.5q75 -373 394 -571l-32 -41q-290 187 -380 506q-74 -307 -384 -508l-31 44q376 234 389 622v144h49z" />
    <glyph glyph-name="cid1354" unicode="&#x4ebf;" 
d="M158 484q-26 -36 -54 -69.5t-59 -66.5l-15 51q154 169 223 385l44 -21q-37 -107 -90 -201v-608h-49v530zM792 684v-42q-97 -101 -163.5 -171t-102.5 -112q-84 -94 -118 -170q-26 -50 -26 -90q0 -29 18 -47q22 -18 82 -18h242q45 0 65 33q9 18 13.5 56.5t4.5 98.5l48 -13
q0 -138 -28 -180q-25 -42 -88 -42h-267q-79 0 -107 28q-32 33 -32 84q0 23 6 47.5t19 50.5q37 82 126 183q43 50 102.5 113.5t135.5 142.5h-376v48h446z" />
    <glyph glyph-name="cid1355" unicode="&#x4ec0;" 
d="M164 487q-26 -39 -56 -76.5t-63 -72.5l-15 51q76 85 130.5 182t88.5 207l45 -21q-16 -52 -36 -99t-44 -91v-613h-50v533zM595 778v-304h261v-48h-261v-472h-50v472h-254v48h254v304h50z" />
    <glyph glyph-name="cid1356" unicode="&#x4ec1;" 
d="M804 625v-48h-469v48h469zM855 105v-47h-569v47h569zM159 476q-26 -34 -53.5 -68t-58.5 -65l-16 50q79 86 135 181.5t92 205.5l44 -21q-19 -56 -42.5 -107.5t-52.5 -99.5v-596h-48v520z" />
    <glyph glyph-name="cid1360" unicode="&#x4ec5;" 
d="M285 758q-18 -52 -38 -100.5t-44 -93.5v-610h-50v530q-47 -68 -103 -130l-15 50q144 168 204 375zM827 -42q-149 103 -248 220q-108 -135 -265 -220l-31 38q159 86 265 222q-150 200 -173 449h-44v47h456v-44q-45 -266 -180 -453q101 -122 253 -222zM575 255
q119 172 161 412h-314q15 -227 153 -412z" />
    <glyph glyph-name="cid1362" unicode="&#x4ec7;" 
d="M294 748q-35 -105 -89 -199v-594h-48v517q-52 -71 -109 -132l-16 52q150 164 218 376zM487 766v-191h207v-518q0 -44 39 -44h37q28 0 33 50q2 27 4 55.5t2 57.5l46 -13q-4 -53 -7.5 -85t-5.5 -44q-14 -66 -72 -66h-45q-80 0 -80 82v478h-158q-7 -388 -193 -567l-36 32
q176 169 181 535h-131v47h131v191h48z" />
    <glyph glyph-name="cid1364" unicode="&#x4eca;" 
d="M367 542q57 -26 108 -57t99 -67l-27 -42q-99 81 -206 128zM756 327v-37q-90 -219 -354 -333l-33 41q238 99 331 283h-567v46h623zM467 773q174 -192 394 -302l-25 -45q-114 58 -210 133.5t-177 168.5q-147 -176 -386 -303l-25 45q240 124 395 303h34z" />
    <glyph glyph-name="cid1365" unicode="&#x4ecb;" 
d="M623 473v-511h-49v511h49zM319 471v-161q-3 -242 -161 -355l-36 33q74 50 110 130t39 192v161h48zM466 772q84 -103 180.5 -182.5t206.5 -138.5l-25 -43q-223 122 -380 319q-142 -189 -377 -326l-23 44q116 65 211.5 147.5t173.5 179.5h33z" />
    <glyph glyph-name="cid1366" unicode="&#x4ecd;" 
d="M305 682v50h424v-26q-9 -65 -21 -131t-29 -132h151v-21q-5 -124 -10 -204t-10 -119q-13 -78 -40 -107q-31 -27 -91 -27h-105l-14 48q29 -1 56 -2t50 -1q51 0 70 20q19 24 28 86q9 59 17 283h-158q19 74 32.5 144.5t22.5 138.5h-205v-176q-5 -372 -195 -540l-38 34
q184 159 185 506v176h-120zM267 761q-14 -45 -31 -88t-35 -84v-635h-49v547q-24 -41 -51.5 -79t-57.5 -74l-16 53q135 167 197 381z" />
    <glyph glyph-name="cid1367" unicode="&#x4ece;" 
d="M286 769q0 -213 -21 -368q54 -57 99 -113t81 -115l-36 -36q-61 101 -153 209q-1 -1 -1 -3q-42 -231 -189 -378l-35 40q129 132 173 333q15 86 23.5 193t9.5 238h49zM638 770q0 -70 -3.5 -133t-7.5 -122q67 -320 235 -507l-34 -41q-146 172 -216 429q-3 -16 -5 -29.5
t-4 -27.5q-45 -232 -199 -380l-34 42q136 131 183 336q17 86 25.5 193.5t8.5 239.5h51z" />
    <glyph glyph-name="cid1368" unicode="&#x4ed1;" 
d="M467 771q169 -221 392 -353l-26 -46q-113 69 -209 156t-176 199q-72 -107 -167.5 -196.5t-214.5 -167.5l-26 47q236 144 392 361h35zM336 -30q-108 0 -108 117v373h48v-194q104 24 205 59t202 82l29 -39q-114 -51 -222.5 -88t-213.5 -60v-124q0 -80 74 -80h254
q45 0 73 16q34 26 47 162l46 -16q-14 -144 -53 -182q-34 -24 -100 -26h-281z" />
    <glyph glyph-name="cid1369" unicode="&#x4ed3;" 
d="M466 772q168 -207 392 -327l-25 -44q-226 126 -385 327q-146 -194 -388 -332l-23 42q239 137 396 334h33zM280 403v-336q0 -51 52 -51h290q75 0 95 29q21 34 29 123l45 -14q-11 -126 -45 -159q-33 -25 -114 -25h-316q-85 0 -85 83v395h431v-203q0 -79 -70 -82
q-34 0 -66.5 1t-64.5 3l-14 46q33 -2 66 -3t62 -1q40 0 40 49v145h-335z" />
    <glyph glyph-name="cid1370" unicode="&#x4ed4;" 
d="M565 392v135q90 69 173 165h-375v45h433v-45q-82 -100 -184 -186v-114h249v-49h-249v-300q0 -85 -84 -85h-96l-12 46q19 0 41.5 -0.5t46.5 -0.5q57 0 57 56v284h-274v49h274zM157 482q-25 -35 -53 -68.5t-58 -64.5l-15 52q76 85 131.5 179.5t89.5 201.5l44 -22
q-38 -108 -91 -203v-602h-48v527z" />
    <glyph glyph-name="cid1371" unicode="&#x4ed5;" 
d="M296 757q-19 -55 -42 -104.5t-49 -97.5v-601h-48v527q-25 -35 -53 -67.5t-58 -63.5l-16 51q76 83 132 176t90 201zM539 505v273h48v-273h268v-48h-268v-422h234v-47h-514v47h232v422h-269v48h269z" />
    <glyph glyph-name="cid1372" unicode="&#x4ed6;" 
d="M280 759q-16 -51 -35.5 -99.5t-43.5 -92.5v-613h-49v531q-24 -36 -49.5 -70t-55.5 -67l-16 51q143 168 205 381zM420 -26q-81 0 -81 82v382l-95 -30v49l95 30v205h48v-188l150 49v225h49v-210l198 66q0 -138 -3 -222t-8 -112q-14 -58 -100 -58h-17l-14 47h41q35 0 43 33
q5 16 6.5 77t2.5 168l-149 -48v-364h-49v348l-150 -49v-392q0 -41 46 -41h292q37 0 54 19q17 20 22 150l46 -15q-4 -71 -12 -114t-19 -58q-24 -29 -83 -29h-313z" />
    <glyph glyph-name="cid1374" unicode="&#x4ed8;" 
d="M290 762q-15 -47 -33 -91t-40 -86v-631h-47v546q-29 -42 -58.5 -81.5t-63.5 -75.5l-16 50q75 86 127.5 182.5t84.5 207.5zM672 576v197h49v-197h133v-49h-133v-477q0 -88 -78 -88h-128l-12 48q33 -2 63 -3t60 -1q46 0 46 56v465h-356v49h356zM389 419q106 -124 163 -218
l-40 -28q-62 99 -164 221z" />
    <glyph glyph-name="cid1375" unicode="&#x4ed9;" 
d="M297 763q-36 -108 -92 -205v-604h-48v529q-25 -35 -52.5 -68t-57.5 -64l-16 52q153 170 222 381zM605 772v-710h163v547h48v-649h-48v55h-379v-55h-48v648h48v-546h168v710h48z" />
    <glyph glyph-name="cid1380" unicode="&#x4ee3;" 
d="M825 507l-302 -36q7 -98 24 -167q33 -139 94 -218q57 -72 105 -75q41 2 59 179l43 -25q-9 -55 -19.5 -95.5t-24.5 -67.5q-24 -40 -56 -40q-65 0 -133 85q-76 93 -114 243q-17 70 -28 173l-199 -23l-9 45l205 25q-3 58 -6 125t-3 143h49q0 -75 2 -139t6 -121l298 36z
M160 482q-53 -75 -113 -136l-16 50q153 169 222 382l44 -21q-18 -53 -39.5 -102t-49.5 -97v-604h-48v528zM610 768q42 -34 77 -68.5t64 -69.5l-33 -32q-27 33 -61.5 68.5t-77.5 72.5z" />
    <glyph glyph-name="cid1381" unicode="&#x4ee4;" 
d="M374 557q49 -22 94 -48.5t85 -57.5l-25 -37q-43 33 -88 59.5t-92 46.5zM286 198q98 -38 184 -82q54 41 103.5 89t98.5 106h-525v46h586v-41q-48 -62 -102.5 -118t-117.5 -105q36 -20 71 -41t69 -44l-27 -42q-89 62 -180.5 109.5t-186.5 83.5zM466 763q168 -190 392 -302
l-24 -43q-227 114 -386 299q-72 -88 -168 -165.5t-214 -143.5l-24 43q234 125 391 312h33z" />
    <glyph glyph-name="cid1382" unicode="&#x4ee5;" 
d="M330 676q123 -141 192 -247l-40 -28q-71 113 -194 248zM645 251q-89 -169 -291 -288l-35 41q233 133 312 335q57 171 60 434h49q0 -128 -14.5 -235t-40.5 -194q-5 -13 -8.5 -24.5t-9.5 -22.5q115 -147 191 -289l-36 -36q-34 66 -78 135.5t-99 143.5zM105 112q22 16 22 40
v592h50v-605q55 22 109.5 50t108.5 60l15 -48q-69 -38 -140.5 -72t-148.5 -62z" />
    <glyph glyph-name="cid1384" unicode="&#x4eea;" 
d="M295 758q-18 -55 -41 -104.5t-49 -97.5v-599h-48v524q-24 -33 -50.5 -65t-53.5 -61l-18 50q150 167 216 374zM480 772q85 -105 135 -191l-41 -27q-26 46 -58.5 94t-72.5 99zM797 724q-49 -331 -198 -529q57 -62 122.5 -111t140.5 -84l-29 -44q-151 75 -263 201
q-112 -131 -269 -201l-27 45q157 68 263 195q-140 172 -221 430l41 24q38 -126 89.5 -229.5t119.5 -186.5q141 195 184 501z" />
    <glyph glyph-name="cid1386" unicode="&#x4eec;" 
d="M649 -38l-15 46l92 -1q45 0 45 54v603h-226v48h275v-664q0 -86 -84 -86h-87zM407 774q66 -81 101 -142l-38 -26q-37 66 -102 146zM296 759q-19 -55 -42 -106t-49 -99v-600h-48v525q-25 -36 -52 -68.5t-57 -62.5l-15 51q77 84 131 178t89 203zM378 623v-666h-48v666h48z
" />
    <glyph glyph-name="cid1387" unicode="&#x4ef0;" 
d="M296 121q20 10 20 28v535q116 37 177 76l28 -40q-57 -38 -159 -67v-511q77 28 150 59l9 -45q-90 -37 -212 -76zM151 493q-44 -76 -99 -146l-17 50q123 167 180 381l44 -21q-13 -45 -28.5 -88.5t-33.5 -83.5v-629h-46v537zM676 68l-14 48l60 -4q44 0 44 49v499h-151v-700
h-47v746h244v-556q0 -82 -74 -82h-62z" />
    <glyph glyph-name="cid1388" unicode="&#x4ef2;" 
d="M285 760q-19 -51 -39 -99.5t-44 -94.5v-612h-49v533q-24 -36 -51.5 -70t-56.5 -67l-15 53q145 165 209 378zM589 772v-166h226v-394h-49v49h-177v-305h-48v305h-176v-49h-49v394h225v166h48zM541 305v255h-176v-255h176zM766 305v255h-177v-255h177z" />
    <glyph glyph-name="cid1391" unicode="&#x4ef6;" 
d="M289 759q-36 -111 -90 -204v-600h-47v524q-25 -34 -50.5 -67t-55.5 -64l-16 52q149 168 214 381zM442 719q-15 -75 -32 -138h151v192h47v-192h214v-48h-214v-232h247v-48h-247v-294h-47v294h-273v48h273v232h-168q-18 -45 -38.5 -85t-45.5 -76l-31 40q86 127 117 311z
" />
    <glyph glyph-name="cid1392" unicode="&#x4ef7;" 
d="M159 492q-48 -73 -106 -138l-17 51q138 162 200 367l44 -20q-15 -48 -33 -91.5t-40 -84.5v-619h-48v535zM695 462v-497h-49v497h49zM459 459v-136q-1 -249 -135 -368l-36 33q121 103 124 335v136h47zM570 772q84 -183 294 -324l-27 -42q-193 128 -289 317
q-112 -214 -278 -327l-27 41q182 129 284 335h43z" />
    <glyph glyph-name="cid1393" unicode="&#x4efb;" 
d="M816 702q-102 -34 -232 -47v-271h271v-47h-271v-302h226v-47h-498v47h225v302h-270v47h270v266q-49 -5 -100.5 -6.5t-107.5 -1.5l-18 45q296 2 481 56zM296 752q-37 -106 -91 -198v-600h-48v527q-25 -33 -51 -64.5t-56 -60.5l-16 50q150 160 218 366z" />
    <glyph glyph-name="cid1394" unicode="&#x4efd;" 
d="M348 371v48h388q0 -272 -13 -337q-11 -112 -104 -112h-37.5t-57.5 3l-11 45q29 -2 54 -2h47q53 0 63 81q5 24 7.5 91.5t3.5 182.5h-174q-23 -151 -66 -240q-47 -93 -141 -169l-30 39q83 68 127 150q43 85 62 220h-118zM291 755q-16 -53 -38 -101t-48 -94v-606h-48v530
q-48 -66 -109 -130l-16 50q150 166 217 369zM491 747q-80 -228 -211 -351l-37 33q133 125 202 337zM642 778q61 -202 214 -330l-32 -40q-160 134 -224 344z" />
    <glyph glyph-name="cid1395" unicode="&#x4eff;" 
d="M291 757q-30 -97 -76 -180v-623h-48v543q-27 -39 -55.5 -75.5t-59.5 -71.5l-17 52q146 165 211 376zM302 583v48h255q-12 37 -25.5 72t-29.5 66l51 9q28 -63 52 -147h241v-48h-355v-98q0 -35 -3 -70h293q-2 -136 -5 -223t-12 -130q-10 -47 -37.5 -71.5t-73.5 -25.5
q-56 0 -131 3l-14 43q41 -3 76 -3h65q63 3 74 83q5 35 7 104t2 173h-248q-27 -274 -170 -410l-37 33q162 152 166 494v98h-141z" />
    <glyph glyph-name="cid1396" unicode="&#x4f01;" 
d="M467 772q172 -192 395 -301l-25 -47q-227 115 -389 304q-147 -175 -391 -305l-25 47q240 120 400 302h35zM499 538v-210h252v-48h-252v-239h316v-47h-743v47h141v367h48v-367h189v497h49z" />
    <glyph glyph-name="cid1398" unicode="&#x4f0a;" 
d="M535 275q-14 -79 -41 -137q-61 -123 -189 -181l-27 43q111 50 170 156q25 50 37 119h-156v47h163q7 62 7 139v8h-208v45h208v149h-157v46h434v-195h80v-45h-80v-194h-241zM548 514h180v149h-180v-149zM548 458q0 -36 -2.5 -70.5t-4.5 -65.5h187v147h-180v-11zM159 497
q-26 -40 -54 -78t-61 -73l-15 51q146 176 207 388l46 -20q-31 -96 -75 -181v-630h-48v543z" />
    <glyph glyph-name="cid1399" unicode="&#x4f0d;" 
d="M470 426l31 242h-181v46h496v-46h-267l-31 -242h229v-388h107v-47h-582v47h150l43 340h-142v48h147zM700 38v340h-188l-42 -340h230zM297 758q-19 -55 -42 -105.5t-49 -98.5v-600h-49v523q-48 -69 -105 -129l-17 53q150 165 218 378z" />
    <glyph glyph-name="cid1401" unicode="&#x4f0f;" 
d="M163 495q-26 -41 -54 -79t-59 -73l-15 52q139 169 201 384l46 -21q-30 -97 -70 -177v-627h-49v541zM688 750q80 -86 117 -148l-39 -27q-41 66 -116 152zM582 772q0 -52 -1 -114t-2 -136h265v-48h-257q63 -311 274 -481l-33 -36q-205 168 -266 446q-62 -266 -273 -447
l-33 36q235 207 269 482h-235v48h238q2 82 4 144.5t2 105.5h48z" />
    <glyph glyph-name="cid1402" unicode="&#x4f10;" 
d="M163 496q-24 -39 -52 -75.5t-58 -70.5l-16 53q139 165 199 369l46 -20q-29 -89 -70 -172v-623h-49v539zM825 534l-323 -50q9 -80 26 -150q10 -37 21 -69.5t22 -63.5q104 103 179 248l40 -22q-82 -161 -198 -271q7 -17 15.5 -32.5t17.5 -29.5q60 -81 108 -81q37 4 78 165
l43 -27q-22 -74 -47 -125q-32 -64 -72 -64q-67 0 -132 88q-14 15 -25.5 34.5t-23.5 40.5q-56 -46 -119 -82.5t-132 -62.5l-26 41q148 53 258 147q-25 58 -46 133q-22 73 -32 176l-177 -26l-6 46l176 27q-5 56 -8 118.5t-3 131.5h48q0 -133 9 -243l320 49zM628 771
q55 -58 105 -129l-42 -22q-25 37 -50.5 69.5t-53.5 62.5z" />
    <glyph glyph-name="cid1403" unicode="&#x4f11;" 
d="M156 477q-24 -32 -51 -64.5t-57 -62.5l-15 53q77 82 131 175t89 198l44 -20q-37 -110 -92 -203v-596h-49v520zM523 588v183h47v-183h239v-47h-193q85 -240 244 -396l-32 -42q-152 163 -248 438h-10v-585h-47v585h-10q-90 -285 -238 -445l-27 46q145 147 230 399h-172v47
h217z" />
    <glyph glyph-name="cid1404" unicode="&#x4f17;" 
d="M467 773q165 -213 381 -335l-25 -45q-111 65 -203.5 148.5t-171.5 187.5q-142 -198 -378 -339l-24 44q115 69 211.5 153t173.5 186h36zM307 459q0 -47 -3 -89t-9 -79q44 -42 80.5 -83t66.5 -83l-34 -34q-24 37 -55 74t-67 78q-3 -10 -6 -21t-5 -22q-45 -139 -196 -226
l-30 38q132 75 179 195q15 49 24 112t9 140h46zM623 466q0 -40 -2 -78t-5 -73q70 -195 239 -307l-30 -38q-151 107 -223 265l-8 -34q-42 -142 -176 -233l-30 38q118 80 158 201q16 51 22.5 116t6.5 143h48z" />
    <glyph glyph-name="cid1405" unicode="&#x4f18;" 
d="M163 486q-51 -72 -115 -139l-15 48q76 84 130 177t88 199l43 -19q-32 -98 -82 -188v-608h-49v530zM477 551q1 15 1 30.5v30.5v160h48v-160l-2 -61h308v-47h-193v-458q0 -30 32 -30h83q16 0 28 14q15 24 18 154l44 -14q-9 -142 -28 -175q-18 -25 -50 -25h-110
q-63 0 -63 68v466h-71q-30 -364 -228 -546l-36 32q190 172 215 514h-187v47h191zM645 754q42 -31 77 -60t64 -59l-33 -34q-27 29 -62 59t-79 62z" />
    <glyph glyph-name="cid1406" unicode="&#x4f19;" 
d="M164 480q-23 -33 -48.5 -62.5t-52.5 -60.5l-15 51q144 162 210 365l43 -19q-18 -56 -40.5 -105.5t-50.5 -96.5v-594h-46v522zM425 612q-14 -155 -73 -279l-45 14q29 59 48 126t26 145zM592 768q0 -113 -4 -224q0 -20 -1 -40.5t-4 -40.5q56 -302 272 -468l-33 -35
q-196 158 -254 400q-53 -238 -255 -404l-33 37q254 202 261 537q0 61 0.5 120.5t0.5 117.5h50zM823 620q-16 -78 -36.5 -146t-44.5 -126l-45 17q24 52 44 118.5t38 148.5z" />
    <glyph glyph-name="cid1407" unicode="&#x4f1a;" 
d="M467 774q172 -195 395 -308l-25 -47q-230 122 -389 313q-146 -181 -391 -314l-25 46q238 123 400 310h35zM668 495v-47h-436v47h436zM808 314v-48h-426q-69 -135 -169 -241q121 6 234 16.5t220 26.5q-24 32 -51 66t-59 70l38 22q61 -69 108.5 -129t80.5 -113l-40 -28
q-22 36 -50 78q-106 -19 -240 -32.5t-298 -23.5l-15 43q16 5 26 13q49 56 89 113t73 119h-237v48h716z" />
    <glyph glyph-name="cid1409" unicode="&#x4f1e;" 
d="M424 242v333h49v-333h352v-48h-352v-237h-49v237h-351v48h351zM710 463q-16 -46 -40 -89.5t-52 -86.5l-41 19q30 45 52.5 89.5t39.5 87.5zM468 772q173 -172 394 -271l-25 -43q-225 103 -388 271q-146 -164 -389 -283l-24 42q120 58 219 129t178 155h35zM228 471
q43 -72 79 -170l-42 -11q-15 43 -35.5 85t-44.5 82z" />
    <glyph glyph-name="cid1410" unicode="&#x4f1f;" 
d="M528 666v106h51v-106h241v-46h-241v-126h201v-47h-201v-125h254q0 -189 -29 -230q-27 -40 -99 -42h-44l-12 43h43q62 3 77 35q13 33 17 148h-207v-320h-51v320h-243v46h243v125h-182v47h182v126h-216v46h216zM158 481q-25 -35 -52.5 -67.5t-57.5 -63.5l-17 51
q154 167 223 379l44 -21q-19 -55 -41 -105.5t-50 -98.5v-601h-49v527z" />
    <glyph glyph-name="cid1411" unicode="&#x4f20;" 
d="M158 479q-24 -36 -51 -68.5t-55 -62.5l-17 52q151 167 216 376l44 -20q-17 -54 -39.5 -103.5t-48.5 -97.5v-601h-49v525zM494 655q8 29 15 59.5t14 61.5l47 -5q-6 -29 -13 -58.5t-14 -57.5h281v-47h-294q-16 -66 -34 -121h364v-45h-378q-13 -36 -25.5 -67.5t-24.5 -61.5
h376v-43q-63 -103 -191 -199q34 -19 67.5 -38.5t63.5 -41.5l-27 -42q-82 58 -166.5 102.5t-172.5 78.5l27 38q84 -33 165 -75q58 41 103.5 84.5t77.5 89.5h-389q19 43 34.5 86t32.5 89h-155v45h168q20 62 37 121h-166v47h177z" />
    <glyph glyph-name="cid1413" unicode="&#x4f24;" 
d="M294 765q-36 -109 -89 -203v-608h-48v530q-27 -36 -54 -69.5t-58 -65.5l-15 52q151 171 219 384zM502 782q-18 -67 -44 -118h393v-49h-418q-51 -81 -123 -145l-31 39q131 115 175 280zM565 553v-137h256q0 -147 -4 -237.5t-9 -124.5q-11 -87 -100 -87q-39 0 -133 3
l-10 43q79 -3 138 -3q49 0 58 58q5 26 7.5 100.5t5.5 199.5h-212q-24 -282 -227 -417l-39 34q195 125 219 383h-174v48h176v137h48z" />
    <glyph glyph-name="cid1415" unicode="&#x4f26;" 
d="M579 772q82 -169 283 -298l-27 -43q-185 121 -278 295q-111 -194 -279 -299l-26 43q92 58 163.5 133.5t121.5 168.5h42zM473 -30q-83 0 -83 81v402h49v-166q152 43 294 123l29 -40q-85 -45 -165 -77.5t-158 -55.5v-176q0 -44 50 -44h194q45 0 64 20q24 24 33 147l47 -17
q-5 -69 -16 -111.5t-27 -59.5q-30 -26 -93 -26h-218zM293 760q-18 -54 -40 -103t-48 -97v-606h-48v529q-25 -35 -52 -68t-57 -64l-16 52q75 83 128.5 178t87.5 200z" />
    <glyph glyph-name="cid1417" unicode="&#x4f2a;" 
d="M164 501q-26 -41 -55 -79t-61 -74l-16 51q143 166 205 377l45 -20q-16 -45 -32.5 -87.5t-36.5 -82.5v-632h-49v547zM354 752q62 -75 99 -134l-38 -26q-19 33 -44.5 66t-54.5 68zM570 371q82 -103 125 -177l-39 -27q-44 79 -122 180zM561 774v-109q-1 -31 -2.5 -60.5
t-2.5 -58.5h254q0 -375 -13 -464q-15 -114 -140 -114q-8 0 -25.5 0.5t-43.5 1.5l-11 45q22 -2 41.5 -2h34.5q83 0 98 83q5 36 7.5 135t3.5 266h-210q-9 -85 -22.5 -156t-35.5 -129q-61 -156 -206 -247l-26 40q69 45 118.5 106t77.5 140q18 52 29.5 113t17.5 133h-195v49h200
q3 58 3 119v109h48z" />
    <glyph glyph-name="cid1419" unicode="&#x4f2f;" 
d="M172 493q-26 -39 -56.5 -74.5t-62.5 -68.5l-17 53q156 165 225 373l45 -20q-19 -51 -39.5 -98t-47.5 -91v-609h-47v535zM804 -41h-48v49h-354v-49h-47v676h140q17 34 28.5 69t17.5 74l50 -9q-19 -73 -49 -134h262v-676zM756 56v246h-354v-246h354zM756 348v241h-354v-241
h354z" />
    <glyph glyph-name="cid1420" unicode="&#x4f30;" 
d="M288 757q-34 -111 -89 -205v-598h-48v520q-24 -34 -49.5 -67t-54.5 -63l-16 52q73 86 125.5 179.5t85.5 202.5zM545 591v183h49v-183h263v-47h-263v-201h198v-386h-46v43h-347v-43h-47v386h193v201h-252v47h252zM746 46v249h-347v-249h347z" />
    <glyph glyph-name="cid1422" unicode="&#x4f34;" 
d="M380 726q21 -40 41 -86t37 -99l-46 -11q-16 48 -35.5 92.5t-42.5 88.5zM804 732q-17 -61 -38 -111.5t-47 -94.5l-45 16q23 39 44 89t39 112zM542 476v297h50v-297h241v-46h-241v-163h265v-48h-265v-263h-50v263h-260v48h260v163h-234v46h234zM286 757q-19 -55 -40 -105
t-48 -97v-601h-47v523q-23 -32 -48 -64.5t-53 -62.5l-15 52q141 166 205 377z" />
    <glyph glyph-name="cid1423" unicode="&#x4f36;" 
d="M498 550q30 -24 60 -52t57 -62l-31 -34q-28 33 -57 63t-62 55zM287 758q-34 -109 -89 -204v-600h-47v523q-47 -67 -103 -127l-15 53q144 164 208 376zM766 365v-41q-45 -65 -97 -122.5t-112 -107.5q38 -26 72.5 -51t66.5 -51l-35 -34q-59 52 -137.5 104.5t-179.5 107.5
l34 31q37 -18 71.5 -39.5t67.5 -41.5q103 82 191 198h-414v47h472zM562 767q86 -171 297 -298l-26 -42q-199 118 -293 289q-117 -190 -291 -291l-27 38q191 117 296 304h44z" />
    <glyph glyph-name="cid1424" unicode="&#x4f38;" 
d="M373 256h175v148h-175v-148zM373 212v-48h-45v474h220v134h47v-134h226v-474h-47v48h-179v-256h-47v256h-175zM774 256v148h-179v-148h179zM774 592h-179v-144h179v144zM373 592v-144h175v144h-175zM293 757q-19 -55 -41.5 -105t-48.5 -98v-600h-50v523
q-23 -32 -48.5 -63.5t-52.5 -60.5l-17 51q147 166 213 375z" />
    <glyph glyph-name="cid1425" unicode="&#x4f3a;" 
d="M606 -41l-13 47l131 -2q47 0 47 57v630h-477v46h526v-689q0 -89 -87 -89h-127zM679 570v-46h-379v46h379zM645 414v-277h-313v277h313zM598 368h-219v-186h219v186zM268 759q-13 -47 -30.5 -90.5t-35.5 -85.5v-629h-49v542q-23 -37 -48.5 -72t-54.5 -69l-16 50
q130 165 192 375z" />
    <glyph glyph-name="cid1426" unicode="&#x4f3c;" 
d="M308 134q35 11 35 33v589h47v-596q35 14 70 30.5t70 34.5l13 -41q-51 -28 -106 -51.5t-114 -44.5zM160 487q-51 -79 -116 -147l-15 53q148 171 213 387l46 -21q-16 -50 -36 -98t-44 -93v-608h-48v527zM758 772q0 -258 -40 -434q-8 -26 -14.5 -50.5t-16.5 -49.5
q59 -70 103 -131.5t76 -114.5l-39 -26q-29 52 -68.5 109.5t-90.5 119.5q-66 -139 -197 -240l-30 37q168 131 227 340q43 175 44 440h46zM502 668q61 -104 107 -230l-39 -18q-25 67 -52 125.5t-57 110.5z" />
    <glyph glyph-name="cid1427" unicode="&#x4f3d;" 
d="M148 488q-22 -34 -46 -66.5t-50 -64.5l-17 51q128 164 185 370l45 -21q-15 -49 -32.5 -95.5t-39.5 -88.5v-615h-45v530zM540 615q0 -211 -3 -340.5t-10 -179.5q-12 -130 -112 -130q-6 0 -19.5 0.5t-32.5 1.5l-11 43q16 -2 31.5 -2h28.5q60 0 71 102q5 40 7 154t4 304
h-104v-35q-3 -394 -126 -578l-36 33q113 169 116 545v35h-89v47h89v163h46v-163h150zM821 -20h-46v56h-123v-56h-45v661h214v-661zM775 80v518h-123v-518h123z" />
    <glyph glyph-name="cid1429" unicode="&#x4f46;" 
d="M787 716v-529h-420v529h420zM738 427h-323v-194h323v194zM738 474v195h-323v-195h323zM858 35v-47h-564v47h564zM298 760q-37 -108 -92 -204v-602h-49v528q-25 -35 -52 -67.5t-57 -63.5l-16 52q153 165 221 378z" />
    <glyph glyph-name="cid15128" unicode="&#x4f47;" 
d="M838 484h-47v134h-434v-134h-46v179h246q-10 29 -22.5 56t-26.5 51l50 10q25 -52 48 -117h232v-179zM413 -35l-11 47q67 -4 126 -4q41 0 41 39v327h-267v49h547v-49h-232v-339q0 -70 -71 -70h-133zM298 757q-19 -55 -42 -106t-51 -99v-598h-48v523q-25 -32 -51 -63
t-54 -60l-17 51q154 163 219 373z" />
    <glyph glyph-name="cid15129" unicode="&#x4f48;" 
d="M277 757q-15 -46 -31.5 -88.5t-36.5 -82.5v-627h-47v540q-48 -81 -109 -151l-16 51q68 83 117 176.5t78 200.5zM479 648q12 31 20.5 62.5t16.5 63.5l46 -8q-10 -31 -18 -60.5t-18 -57.5h321v-47h-336q-20 -47 -41.5 -90t-47.5 -84h154v115h46v-115h190v-324
q0 -63 -66 -63h-63l-11 44l61 -2q33 0 33 30v271h-144v-425h-46v425h-140v-349h-46v346q-27 -37 -58.5 -70.5t-65.5 -63.5l-27 33q145 128 222 322h-171v47h189z" />
    <glyph glyph-name="cid1430" unicode="&#x4f4d;" 
d="M294 759q-17 -53 -39 -102t-48 -97v-606h-49v529q-48 -68 -106 -130l-17 51q76 83 129 177t86 200zM549 625q-10 39 -21.5 74t-24.5 67l50 7q13 -31 23.5 -68.5t20.5 -79.5h239v-46h-538v46h251zM595 51q71 184 124 460l46 -11q-47 -256 -120 -449h214v-47h-574v47h310z
M399 501q27 -89 50.5 -189.5t45.5 -215.5l-46 -12q-18 106 -41 206.5t-53 196.5z" />
    <glyph glyph-name="cid1431" unicode="&#x4f4e;" 
d="M380 47q24 10 46.5 19.5t44.5 20.5l8 -44q-33 -13 -72.5 -27.5t-84.5 -30.5l-12 43q22 9 22 29v603q288 44 441 97l27 -40q-35 -12 -75 -23.5t-85 -22.5q1 -67 2.5 -125t5.5 -108h198v-45h-195q2 -33 6 -61t9 -52q21 -119 58 -188q31 -58 51 -58q22 0 38 156l42 -23
q-27 -190 -71 -190q-40 0 -85 71q-47 75 -77 217q-5 28 -10 60t-8 68h-224v-346zM592 660q-49 -8 -101.5 -18t-110.5 -19v-185h220q-4 50 -6 106t-2 116zM530 150q77 -92 120 -162l-36 -27q-48 79 -118 165zM293 755q-37 -109 -87 -197v-604h-49v528q-47 -68 -109 -134
l-16 51q149 165 217 375z" />
    <glyph glyph-name="cid1432" unicode="&#x4f4f;" 
d="M835 615v-48h-243v-233h219v-45h-219v-255h263v-47h-575v47h262v255h-221v45h221v233h-247v48h540zM293 757q-18 -55 -41 -104.5t-49 -97.5v-601h-50v526q-44 -65 -103 -125l-16 50q148 165 214 374zM542 776q16 -38 30 -72.5t23 -65.5l-45 -15q-11 35 -24.5 70t-30.5 69
z" />
    <glyph glyph-name="cid1433" unicode="&#x4f50;" 
d="M491 620q9 37 18 74.5t16 76.5l49 -9l-16 -72t-17 -70h290v-46h-303q-17 -58 -37.5 -109t-43.5 -99h357v-46h-174v-282h218v-46h-522v46h256v282h-158q-32 -57 -66.5 -106t-73.5 -93l-32 40q74 82 129.5 185t95.5 228h-165v46h179zM293 756q-18 -54 -40 -103t-48 -95
v-604h-48v528q-25 -35 -52 -67.5t-57 -64.5l-16 54q149 163 214 372z" />
    <glyph glyph-name="cid1434" unicode="&#x4f51;" 
d="M297 746q-36 -112 -92 -206v-582h-48v508q-25 -33 -51 -65t-56 -62l-15 52q76 83 129.5 176.5t88.5 200.5zM784 -40h-48v57h-258v-57h-48v362q-66 -106 -152 -177l-24 44q162 142 235 391h-175v46h187q10 37 16.5 74t11.5 78l50 -7q-7 -38 -13 -74.5t-16 -70.5h289v-46
h-301q-16 -58 -35.5 -109t-43.5 -97h325v-414zM736 63v265h-258v-265h258z" />
    <glyph glyph-name="cid1435" unicode="&#x4f53;" 
d="M152 462q-23 -35 -48 -67.5t-51 -64.5l-17 48q145 176 210 401l44 -21q-19 -58 -41 -112t-48 -104v-587h-49v507zM525 613v165h48v-165h252v-46h-193q33 -117 89 -220t138 -193l-31 -39q-174 200 -236 452h-19v-374h149v-48h-149v-189h-48v189h-146v48h146v374h-17
q-71 -285 -241 -462l-25 40q159 163 227 422h-191v46h247z" />
    <glyph glyph-name="cid15135" unicode="&#x4f54;" 
d="M554 776v-167h303v-49h-303v-180h235v-425h-47v46h-364v-46h-48v425h176v396h48zM742 50v283h-364v-283h364zM316 761q-20 -57 -44 -109t-55 -101v-597h-47v522q-25 -33 -52.5 -65.5t-57.5 -62.5l-14 53q157 171 222 381z" />
    <glyph glyph-name="cid1436" unicode="&#x4f55;" 
d="M856 716v-48h-74v-634q0 -75 -77 -75h-154l-10 47q76 -3 146 -3q46 0 46 43v622h-431v48h554zM615 521v-327h-285v327h285zM566 476h-188v-238h188v238zM282 759q-17 -53 -37 -101t-44 -94v-610h-49v530q-23 -34 -47.5 -66.5t-51.5 -62.5l-18 50q141 165 203 374z" />
    <glyph glyph-name="cid1439" unicode="&#x4f59;" 
d="M467 771q173 -165 395 -262l-25 -43q-227 99 -388 261q-146 -153 -391 -268l-25 46q242 106 400 266h34zM687 526v-46h-205v-132h330v-48h-330v-249q0 -85 -86 -85h-109l-9 47q27 -1 52 -2t49 -1q54 0 54 52v238h-348v48h348v132h-218v46h472zM311 216
q-81 -143 -209 -215l-36 31q132 75 201 201zM629 242q137 -124 209 -216l-39 -30q-75 99 -207 223z" />
    <glyph glyph-name="cid1441" unicode="&#x4f5b;" 
d="M278 761q-35 -106 -84 -203v-604h-47v523q-23 -32 -47 -64.5t-51 -62.5l-15 50q139 172 198 382zM321 310h104q6 30 7.5 63.5t3.5 69.5h-99zM483 443q-3 -37 -4.5 -70t-5.5 -63h122v133h-112zM642 310h191q0 -170 -18 -213q-16 -49 -79 -50q-12 0 -24 0.5t-24 2.5l-11 44
q28 -3 52 -3q39 0 49 40q9 34 9 135h-145v-310h-47v310h-128q-7 -37 -15 -69t-19 -60q-48 -119 -155 -185l-28 41q102 65 146 179q15 46 23 94h-148l26 220h140v134h-143v44h143v107h46v-107h112v107h47v-107h160v-221h-160v-133zM483 486h112v134h-112v-134zM642 486h116
v134h-116v-134z" />
    <glyph glyph-name="cid1442" unicode="&#x4f5c;" 
d="M426 596q-30 -67 -67 -124t-77 -107l-34 40q125 147 198 376l49 -13q-11 -33 -22.5 -64.5t-24.5 -60.5h402v-47h-313v-165h272v-48h-272v-165h279v-48h-279v-214h-48v640h-63zM157 482q-25 -33 -51 -63t-56 -61l-15 50q76 84 129.5 174t88.5 194l44 -20
q-35 -107 -92 -201v-599h-48v526z" />
    <glyph glyph-name="cid1446" unicode="&#x4f60;" 
d="M157 476q-24 -36 -51.5 -70t-57.5 -67l-16 52q149 170 217 388l44 -21q-37 -112 -87 -203v-599h-49v520zM714 418q73 -160 128 -346l-44 -19q-56 198 -127 351zM413 613q-45 -108 -104 -196l-42 26q102 148 153 338l46 -11q-17 -58 -34 -110h388v-33q-12 -41 -26.5 -82.5
t-32.5 -82.5l-48 14q34 59 57 137h-357zM413 -38l-11 46q31 -1 59 -2t55 -1q34 0 34 35v489h47v-500q0 -67 -65 -67h-119zM448 401q-51 -189 -129 -333l-47 17q74 127 132 327z" />
    <glyph glyph-name="cid1447" unicode="&#x4f63;" 
d="M382 345v-32.5t-1 -31.5h168v178h-167v-114zM378 235q-20 -168 -87 -281l-36 34q78 140 81 355v389h482v-702q0 -72 -72 -72h-75l-14 46q20 -1 38 -1.5t36 -0.5q40 0 40 44v189h-176v-266h-46v266h-171zM771 459h-176v-178h176v178zM771 684h-176v-178h176v178zM382 684
v-178h167v178h-167zM150 474q-23 -33 -48 -65.5t-54 -62.5l-16 50q144 168 210 384l45 -21q-35 -110 -89 -207v-598h-48v520z" />
    <glyph glyph-name="cid1451" unicode="&#x4f69;" 
d="M671 596v-43h-122v-105h116v-336q0 -58 -47 -58h-56l-12 39l54 -1q22 0 22 31v284h-77v-438h-41v438h-75v-366h-38v407h113v105h-122v43h285zM763 735v-480q0 -157 12 -198q10 -44 26 -44q20 1 32 158l35 -17q-11 -111 -27 -153q-16 -38 -36 -38q-43 0 -63 59
q-21 60 -21 233v438h-381v-323q-4 -247 -78 -410l-34 28q63 151 69 382v365h466zM256 758q-15 -50 -31.5 -97t-37.5 -89v-618h-42v531q-23 -36 -45.5 -69.5t-49.5 -66.5l-15 48q124 169 179 381z" />
    <glyph glyph-name="cid1455" unicode="&#x4f73;" 
d="M541 660v116h48v-116h202v-48h-202v-149h252v-48h-548v48h248v149h-200v48h200zM541 253v127h48v-127h214v-47h-214v-171h266v-47h-578v47h264v171h-211v47h211zM157 477q-24 -32 -50.5 -63.5t-54.5 -60.5l-17 51q76 82 129.5 175t88.5 199l44 -21q-36 -112 -92 -205
v-595h-48v520z" />
    <glyph glyph-name="cid15147" unicode="&#x4f75;" 
d="M310 749q-16 -43 -34 -83.5t-40 -79.5v-629h-49v551q-57 -84 -134 -160l-16 51q79 82 136.5 174t92.5 196zM426 769q24 -32 47 -67t44 -73l-40 -20q-43 79 -91 141zM491 554v-191q0 -9 -0.5 -18t-0.5 -19h184v228h-183zM444 326q0 10 0.5 19t0.5 18v191h-129v46h325
q28 40 53.5 82t45.5 88l46 -15q-21 -45 -45 -83.5t-51 -71.5h141v-46h-111v-228h136v-46h-136v-323h-46v323h-187q-25 -218 -159 -326l-38 31q128 99 151 295h-145v46h148z" />
    <glyph glyph-name="cid1459" unicode="&#x4f7c;" 
d="M546 655q-24 62 -52 116l49 10q27 -54 52 -126h239v-49h-534v49h246zM480 546q-71 -135 -170 -235l-39 27q97 93 168 228zM671 567q59 -63 104 -118t76 -102l-38 -27q-33 51 -78 106.5t-103 117.5zM720 392q-33 -156 -123 -260q101 -80 261 -137l-25 -40
q-167 59 -268 142q-104 -99 -274 -140l-26 41q165 38 264 132q-108 107 -136 247l44 13q23 -130 125 -227q42 48 69.5 106.5t43.5 131.5zM153 476q-23 -36 -49 -70t-55 -66l-15 53q141 167 204 381l46 -19q-33 -106 -81 -198v-603h-50v522z" />
    <glyph glyph-name="cid1461" unicode="&#x4f7f;" 
d="M551 678v96h48v-96h252v-46h-252v-97h214v-244h-218q-11 -128 -49 -198q70 -41 151 -64t173 -28l-12 -46q-192 11 -339 99q-71 -77 -231 -102l-22 44q149 20 211 87q-82 57 -148 142l37 26q31 -39 65.5 -72.5t72.5 -59.5q19 32 29 74.5t15 97.5h-207v244h210v97h-244v46
h244zM766 492h-167v-123q0 -10 -0.5 -17.5t-0.5 -17.5h168v158zM550 334q0 10 0.5 18t0.5 17v123h-164v-158h163zM152 479q-25 -37 -51.5 -71t-55.5 -66l-15 51q72 86 123.5 182t84.5 206l46 -22q-35 -107 -82 -197v-608h-50v525z" />
    <glyph glyph-name="cid1462" unicode="&#x4f83;" 
d="M553 382v-403h-45v403h45zM159 483q-24 -40 -50 -76.5t-55 -70.5l-16 52q137 173 194 388l45 -19q-29 -100 -70 -183v-620h-48v529zM746 729v-281h-414v281h414zM698 683h-318v-190h318v190zM729 -28q-27 0 -45 16q-13 18 -13 42v358h43v-347q0 -26 30 -26h27q17 0 28 11
q16 19 21 147l38 -12q-2 -69 -8.5 -109.5t-15.5 -56.5q-16 -23 -54 -23h-51zM401 297q0 -197 -113 -345l-36 32q104 137 104 313v87h45v-87z" />
    <glyph glyph-name="cid15157" unicode="&#x4f86;" 
d="M214 407q-46 -70 -108 -121l-30 36q120 98 163 264l46 -8q-9 -37 -21.5 -69.5t-27.5 -61.5q65 -40 123 -92l-27 -42q-58 58 -118 94zM661 415q-38 -61 -90 -104l-30 37q103 87 141 237l46 -8q-9 -36 -20.5 -66.5t-24.5 -58.5q75 -47 141 -109l-27 -42q-71 71 -136 114z
M424 625h-336v46h336v101h49v-101h338v-46h-338v-255q147 -209 384 -328l-26 -42q-210 107 -358 298v-340h-49v336q-133 -182 -353 -299l-25 45q249 128 378 328v257z" />
    <glyph glyph-name="cid1464" unicode="&#x4f88;" 
d="M303 754q-38 -111 -93 -202v-598h-49v522q-26 -35 -53.5 -68.5t-57.5 -64.5l-15 52q154 166 224 377zM708 428q-14 -23 -32.5 -42.5t-37.5 -39.5h199v-42q-89 -244 -525 -350l-23 42q173 39 287 100q-25 23 -50.5 46.5t-52.5 47.5l39 27q27 -24 53.5 -48.5t52.5 -49.5
q120 77 167 182h-206q-102 -65 -256 -105l-27 40q269 66 370 211zM607 768q-12 -19 -25.5 -36.5t-29.5 -34.5h232v-41q-89 -213 -464 -306l-26 41q70 15 129 35.5t109 46.5q-52 55 -91 80l36 26q57 -41 91 -86q111 65 165 161h-223q-39 -34 -81 -63t-92 -52l-28 36
q156 71 253 204z" />
    <glyph glyph-name="cid1466" unicode="&#x4f8b;" 
d="M575 720v-48h-167q-4 -37 -10 -72.5t-11 -68.5h169v-43q-53 -374 -270 -529l-25 44q113 80 176 222q-30 30 -62 53.5t-63 43.5q-14 -25 -29 -47.5t-30 -44.5l-25 47q112 145 134 395h-79v48h292zM332 362q33 -19 63.5 -42t61.5 -49q16 49 30.5 102t24.5 112h-137
q-9 -34 -20 -64.5t-23 -58.5zM643 -38l-11 48q24 -2 47 -3t45 -1q44 0 44 45v721h48v-733q0 -77 -74 -77h-99zM132 466q-20 -30 -40.5 -59t-42.5 -57l-15 53q61 83 105 176t71 200l48 -22q-17 -55 -36 -105t-42 -98v-600h-48v512zM667 689v-558h-46v558h46z" />
    <glyph glyph-name="cid1468" unicode="&#x4f8f;" 
d="M177 501q-56 -82 -125 -153l-17 53q156 166 223 377l45 -21q-16 -47 -35 -90.5t-42 -86.5v-626h-49v547zM397 578q-28 -59 -61 -110l-42 26q76 116 115 261l45 -11q-15 -61 -38 -119h133v153h49v-153h202v-47h-202v-163h243v-47h-200q65 -164 226 -292l-31 -38
q-169 149 -234 330h-4v-414h-49v414h-1q-76 -207 -258 -339l-26 42q171 116 244 297h-215v47h256v163h-152z" />
    <glyph glyph-name="cid1469" unicode="&#x4f91;" 
d="M483 667q9 26 18.5 53t14.5 54l48 -8q-14 -54 -30 -99h321v-45h-339q-28 -68 -62 -123h332v-473q0 -64 -74 -66h-124l-12 44q33 -1 63 -1.5t59 -0.5q44 0 44 38v115h-294v-199h-44v470q-30 -41 -62.5 -74.5t-69.5 -62.5l-30 35q74 59 128.5 133.5t95.5 164.5h-179v45h196
zM448 196h294v105h-294v-105zM742 454h-294v-111h294v111zM142 471q-43 -65 -95 -121l-16 51q142 165 205 372l44 -19q-17 -56 -40 -107t-50 -100v-593h-48v517z" />
    <glyph glyph-name="cid1471" unicode="&#x4f97;" 
d="M154 490q-22 -39 -48.5 -75t-55.5 -69l-15 50q67 86 114.5 180.5t77.5 203.5l44 -21q-13 -48 -30 -92.5t-38 -86.5v-622h-49v532zM686 427v-287h-244v287h244zM643 384h-158v-201h158v201zM630 -39l-12 47l111 -3q46 0 46 47v638h-420v-733h-48v779h515v-695
q0 -80 -76 -80h-116zM703 577v-46h-279v46h279z" />
    <glyph glyph-name="cid1472" unicode="&#x4f9b;" 
d="M433 579v192h47v-192h179v192h49v-192h125v-49h-125v-225h150v-46h-573v46h148v225h-124v49h124zM659 305v225h-179v-225h179zM671 213q114 -127 175 -223l-43 -31q-30 53 -74 109.5t-99 119.5zM501 187q-35 -66 -76 -122.5t-91 -104.5l-43 30q95 90 167 219zM157 483
q-25 -36 -53 -69.5t-59 -65.5l-15 53q154 171 221 382l44 -22q-18 -55 -41 -104.5t-49 -98.5v-602h-48v527z" />
    <glyph glyph-name="cid1473" unicode="&#x4f9d;" 
d="M287 759q-16 -50 -35.5 -97t-43.5 -90v-616h-48v532q-26 -38 -54 -74.5t-61 -70.5l-16 53q148 171 213 384zM547 774q11 -29 21.5 -64t20.5 -76h241v-46h-218q15 -135 54 -250q42 29 76.5 59t62.5 62l31 -37q-29 -33 -67.5 -65t-86.5 -63q31 -83 76.5 -152t103.5 -126
l-29 -46q-225 223 -267 618h-16q-20 -58 -46 -110.5t-59 -100.5v-345q101 31 184 73l9 -47q-54 -24 -116 -46.5t-136 -45.5l-11 44q22 7 22 26v278q-61 -71 -136 -129l-25 41q186 141 266 362h-216v46h255q-11 36 -22 69t-24 63z" />
    <glyph glyph-name="cid1474" unicode="&#x4fa0;" 
d="M142 469q-20 -34 -44.5 -65.5t-49.5 -60.5l-16 52q140 168 201 383l45 -21q-17 -57 -39.5 -108.5t-48.5 -101.5v-593h-48v515zM785 555q-30 -95 -74 -165l-40 14q40 64 72 163zM353 564q19 -35 36.5 -75t31.5 -86l-42 -11q-13 41 -30.5 81.5t-37.5 78.5zM530 660v114h49
v-114h237v-47h-237v-123q0 -38 -3.5 -73.5t-9.5 -68.5h271v-47h-250q81 -172 279 -309l-34 -42q-100 76 -169.5 157t-111.5 172q-63 -222 -285 -328l-28 39q212 95 270 311h-230v47h240q6 31 8.5 64t3.5 68v133h-236v47h236z" />
    <glyph glyph-name="cid15173" unicode="&#x4fa1;" 
d="M822 -43h-47v61h-409v-59h-47v567h156v161h-178v47h549v-47h-180v-161h156v-569zM521 687v-161h99v161h-99zM475 63v418h-109v-418h109zM521 63h99v418h-99v-418zM666 63h109v418h-109v-418zM278 755q-16 -52 -36 -99.5t-44 -92.5v-609h-48v529q-24 -36 -50.5 -69.5
t-54.5 -65.5l-15 53q143 166 203 373z" />
    <glyph glyph-name="cid1475" unicode="&#x4fa3;" 
d="M781 731v-288h-407v288h407zM734 684h-314v-197h314v197zM822 -42h-48v56h-394v-56h-48v375h490v-375zM774 60v229h-394v-229h394zM158 481q-24 -34 -51 -66.5t-57 -63.5l-15 50q76 82 130 175t88 197l43 -18q-36 -107 -89 -200v-601h-49v527z" />
    <glyph glyph-name="cid1477" unicode="&#x4fa6;" 
d="M574 780v-74h263v-46h-263v-96h206v-410h-48v366h-339v-373h-48v417h182v216h47zM631 149q65 -40 118.5 -79.5t97.5 -78.5l-35 -34q-79 75 -213 161zM591 451v-128q-4 -149 -69 -236q-66 -83 -209 -129l-27 43q139 41 201 119q52 77 54 203v128h50zM160 476
q-25 -31 -51.5 -62t-55.5 -60l-17 48q156 163 225 371l46 -19q-20 -56 -44.5 -107t-54.5 -100v-593h-48v522z" />
    <glyph glyph-name="cid1478" unicode="&#x4fa7;" 
d="M561 184h-45v500h-190v-501h-44v544h279v-543zM467 142q76 -77 128 -152l-33 -34q-24 36 -55 75.5t-70 80.5zM442 632v-285q-1 -157 -45 -252q-41 -89 -138 -138l-26 38q93 50 132 133q35 85 36 219v285h41zM134 473q-20 -32 -40.5 -63t-43.5 -60l-15 51q121 166 174 378
l43 -20q-30 -106 -71 -196v-609h-47v519zM651 -38l-10 46q23 -2 45 -3t44 -1q40 0 40 44v724h46v-735q0 -75 -70 -75h-95zM677 690v-557h-43v557h43z" />
    <glyph glyph-name="cid1484" unicode="&#x4faf;" 
d="M679 577v115h-327v45h376v-160h114v-46h-553v46h390zM393 384q-18 -26 -37.5 -49.5t-42.5 -44.5l-30 35q80 74 128 181l42 -9q-7 -18 -14.5 -34.5t-17.5 -33.5h379v-45h-208q-5 -68 -18 -125h262v-43h-229q50 -140 248 -216l-27 -42q-218 95 -264 258q-8 -29 -18 -52
t-23 -43q-67 -95 -217 -164l-30 38q143 62 202 146q21 31 37 75h-236v43h248q8 29 12 60t7 65h-153zM159 492q-50 -80 -111 -146l-15 51q140 165 202 375l44 -20q-29 -93 -72 -175v-623h-48v538z" />
    <glyph glyph-name="cid1485" unicode="&#x4fb5;" 
d="M138 469q-38 -61 -89 -119l-16 51q131 167 193 378l44 -21q-33 -110 -85 -207v-597h-47v515zM319 468v41h402v75h-375v40h375v76h-400v39h443v-271h-445zM828 259h-47v100h-465v-99h-48v141h560v-142zM754 277v-40q-53 -90 -155 -155q53 -26 116 -47t139 -39l-27 -39
q-82 20 -150 44.5t-123 54.5q-58 -31 -126.5 -56.5t-150.5 -44.5l-19 43q149 32 254 84q-107 66 -152 153h-31v42h425zM408 235q50 -75 146 -130q95 56 148 130h-294z" />
    <glyph glyph-name="cid15183" unicode="&#x4fb6;" 
d="M374 447v284h407v-284h-194q-10 -62 -27 -114h262v-375h-48v56h-394v-56h-48v375h180q17 50 28 114h-166zM774 60v229h-394v-229h394zM734 684h-314v-194h314v194zM158 480q-24 -35 -51 -68t-57 -63l-15 48q151 168 218 381l43 -21q-35 -105 -89 -202v-601h-49v526z" />
    <glyph glyph-name="cid15184" unicode="&#x4fb7;" 
d="M691 313v-217h-208v217h208zM650 275h-127v-138h127v138zM422 692v-112h331v112h-331zM422 442h404q0 -161 -3 -258t-10 -134q-13 -89 -122 -89q-12 0 -30.5 0.5t-44.5 1.5l-12 42q24 -1 44.5 -1.5t38.5 -0.5q70 0 81 61q9 54 11 333h-358q-5 -247 -114 -429l-37 33
q53 82 79 187t27 234v316h424v-204h-378v-92zM307 744q-20 -52 -42.5 -99.5t-49.5 -93.5v-597h-50v525q-52 -72 -112 -130l-16 52q156 161 227 364z" />
    <glyph glyph-name="cid1486" unicode="&#x4fbf;" 
d="M846 733v-47h-259v-89h215v-337h-218q-4 -51 -18 -94t-40 -75q141 -80 335 -90l-11 -44q-206 10 -355 101q-73 -64 -212 -101l-25 38q65 18 114.5 40t81.5 49q-72 49 -128 115l37 25q56 -64 124 -108q42 59 50 144h-215v337h216v89h-227v47h535zM756 408h-169v-107h169
v107zM538 408h-170v-107h170v107zM538 450v105h-170v-105h170zM587 450h169v105h-169v-105zM149 475q-23 -35 -46.5 -68t-49.5 -64l-17 52q67 84 114.5 178t77.5 200l43 -18q-16 -52 -34.5 -99.5t-40.5 -94.5v-603h-47v517z" />
    <glyph glyph-name="cid15194" unicode="&#x4fc2;" 
d="M298 758q-19 -57 -42 -109.5t-51 -101.5v-590h-48v514q-24 -34 -50 -65.5t-53 -60.5l-16 51q149 171 216 383zM437 -34l-10 45q42 -4 83 -4q35 0 35 39v238q-52 -5 -104.5 -9t-107.5 -6l-10 43q6 1 10 1.5t9 2.5q51 23 110.5 66.5t127.5 104.5q-55 -5 -111 -10.5
t-117 -10.5l-11 41q107 57 170 161q-44 -2 -87.5 -3.5t-91.5 -1.5l-16 42q145 1 262.5 15.5t208.5 44.5l23 -39q-105 -37 -247 -51q-59 -102 -137 -163q51 4 99.5 8t99.5 10q23 23 46.5 47t47.5 49l42 -17q-97 -103 -181.5 -176t-157.5 -119q81 6 158 13t153 17
q-30 40 -67 87l35 23q46 -57 81.5 -106t59.5 -92l-37 -24q-9 19 -21.5 37.5t-25.5 36.5q-40 -5 -82 -9.5t-84 -7.5v-255q0 -68 -67 -68h-88zM427 190q-28 -58 -61.5 -107t-71.5 -92l-36 26q36 41 69 89t61 104zM700 218q97 -113 149 -200l-37 -26q-27 47 -64.5 97.5
t-85.5 106.5z" />
    <glyph glyph-name="cid1487" unicode="&#x4fc3;" 
d="M149 474q-23 -33 -46.5 -64.5t-49.5 -61.5l-17 53q69 82 118 175t78 197l46 -18q-16 -54 -37.5 -103.5t-44.5 -96.5v-601h-47v520zM792 736v-277h-187v-157h217v-46h-217v-227q50 -10 127 -12q46 0 77.5 0.5t50.5 0.5l-10 -45h-95q-180 0 -244 38q-89 47 -135 160
q-41 -130 -106 -217l-31 37q103 150 139 393l46 -7q-5 -39 -12.5 -74.5t-16.5 -68.5q20 -64 55 -113q22 -28 47 -46.5t53 -32.5q2 -1 3 -1t4 -1v419h-212v277h447zM746 690h-353v-185h353v185z" />
    <glyph glyph-name="cid1488" unicode="&#x4fc4;" 
d="M279 -38l-11 46q21 -1 41 -2t38 -1q41 0 41 41v188q-68 -23 -132 -41l-12 50q38 9 73.5 18.5t70.5 22.5v192h-139v46h139v121q-25 -11 -51.5 -20t-54.5 -15l-21 44q148 31 222 108l35 -28q-34 -39 -81 -65v-145h145q-2 57 -2.5 119.5t-0.5 130.5h46q0 -69 0.5 -131.5
t2.5 -118.5h211v-46h-209q10 -165 27 -268q65 85 112 211l39 -19q-57 -154 -139 -250q38 -140 88 -144q32 6 61 155l38 -31q-41 -176 -99 -176q-49 0 -89 71q-12 18 -19.5 40t-15.5 46q-29 -29 -61 -52t-66 -42l-27 42q40 20 75 45.5t66 58.5q-4 20 -8.5 40.5t-6.5 42.5
q-13 98 -21 230h-147v-175q51 21 101 44v-48q-26 -13 -51 -23.5t-50 -21.5v-217q0 -73 -72 -73h-86zM138 485q-22 -35 -45 -68.5t-49 -65.5l-17 52q127 167 185 379l46 -21q-17 -49 -34 -95.5t-39 -90.5v-621h-47v531zM712 747q30 -30 57 -62.5t52 -70.5l-36 -27
q-27 39 -53 72.5t-54 62.5z" />
    <glyph glyph-name="cid1490" unicode="&#x4fca;" 
d="M675 736q105 -100 157 -172l-41 -29q-10 16 -21.5 31t-23.5 32q-116 -14 -224 -25t-211 -19l-8 42q95 37 197 189l50 -15q-75 -111 -160 -169q228 21 322 34q-34 37 -73 78zM472 499q-36 -45 -82 -83t-100 -71l-29 37q53 32 97 68t81 79zM808 360q-51 45 -97 82t-91 65
l33 32q82 -52 189 -145zM407 236q-55 -39 -116 -72l-30 38q196 99 262 241l46 -10q-23 -54 -65 -103h250v-41q-37 -111 -146 -191q104 -61 259 -95l-19 -47q-86 19 -157.5 46.5t-126.5 65.5q-112 -70 -286 -113l-24 43q164 38 270 99q-76 60 -117 139zM566 125
q98 68 137 162h-238l-24 -22q44 -80 125 -140zM157 480q-25 -34 -51 -66.5t-56 -63.5l-15 53q151 169 216 376l44 -21q-18 -55 -41 -105t-49 -98v-601h-48v526z" />
    <glyph glyph-name="cid1492" unicode="&#x4fcf;" 
d="M160 477q-25 -35 -51 -67t-55 -63l-17 50q150 170 215 379l44 -21q-33 -105 -88 -200v-601h-48v523zM607 772v-254h198v-478q0 -78 -76 -78h-110l-13 46l106 -2q45 0 45 45v108h-355v-205h-47v564h206v254h46zM402 201h355v112h-355v-112zM757 472h-355v-117h355v117z
M370 739q25 -33 47 -70.5t44 -78.5l-41 -20q-23 42 -45 79.5t-46 69.5zM830 729q-40 -87 -100 -163l-39 21q57 79 96 162z" />
    <glyph glyph-name="cid1493" unicode="&#x4fd0;" 
d="M135 477q-40 -62 -87 -122l-16 51q124 161 178 366l44 -18q-15 -52 -32.5 -99t-39.5 -91v-601h-47v514zM404 529v135q-32 -6 -64 -11t-65 -8l-15 44q167 14 291 71l23 -40q-29 -14 -60 -24t-65 -19v-148h125v-46h-125v-60q65 -72 130 -160l-26 -41q-62 98 -104 152v-416
h-45v444q-30 -79 -72 -148t-96 -133l-21 51q131 136 186 311h-138v46h141zM632 -38l-9 46q28 -1 54 -2t53 -1q41 0 41 35v728h47v-739q0 -67 -72 -67h-114zM671 686v-553h-46v553h46z" />
    <glyph glyph-name="cid1495" unicode="&#x4fd7;" 
d="M751 -41h-46v53h-297v-53h-46v351h389v-351zM705 57v207h-297v-207h297zM632 763q59 -40 108 -81t90 -82l-38 -36q-36 40 -84 81.5t-109 86.5zM498 732q-40 -52 -83 -96t-86 -80l-36 33q96 81 167 171zM158 480q-52 -73 -110 -133l-15 53q150 165 216 372l45 -20
q-17 -54 -39 -102t-48 -95v-597h-49v522zM577 594q82 -144 280 -256l-27 -41q-181 100 -268 250q-110 -163 -277 -250l-27 41q187 102 287 256h32z" />
    <glyph glyph-name="cid1499" unicode="&#x4fdd;" 
d="M286 758q-16 -52 -37 -99.5t-45 -92.5v-612h-50v530q-24 -36 -51 -69.5t-58 -66.5l-15 53q147 167 210 379zM766 733v-273h-184v-111h264v-48h-210q83 -147 224 -251l-30 -42q-73 59 -130 131.5t-104 161.5h-14v-345h-48v345h-16q-95 -191 -238 -296l-27 45
q140 94 225 251h-200v48h256v111h-186v273h418zM718 686h-320v-178h320v178z" />
    <glyph glyph-name="cid1502" unicode="&#x4fe1;" 
d="M147 483q-23 -35 -48.5 -68.5t-52.5 -64.5l-16 51q138 172 198 382l46 -22q-16 -52 -36.5 -101t-43.5 -95v-611h-47v529zM859 649v-47h-580v47h580zM781 516v-44h-418v44h418zM781 390v-45h-418v45h418zM797 -43h-47v49h-354v-49h-49v301h450v-301zM750 53v159h-354v-159
h354zM562 778q29 -57 45 -107l-43 -15q-11 28 -23 55t-26 54z" />
    <glyph glyph-name="cid1505" unicode="&#x4fe8;" 
d="M150 484q-47 -70 -100 -134l-15 52q137 165 197 376l43 -20q-34 -104 -77 -191v-613h-48v530zM831 734v-45h-171v-237h186v-45h-489v-149q-2 -95 -25 -170.5t-68 -133.5l-36 34q82 97 83 270v194h180v237h-173v45h513zM616 452v237h-81v-237h81zM807 643
q-25 -88 -62 -155l-38 15q17 29 32 67t29 83zM376 645q35 -66 61 -138l-37 -15q-28 81 -63 140z" />
    <glyph glyph-name="cid1506" unicode="&#x4fe9;" 
d="M160 497q-25 -40 -52 -78t-56 -73l-17 50q136 169 194 382l45 -21q-14 -45 -30 -86.5t-36 -82.5v-634h-48v543zM842 714v-48h-176q0 -80 -4 -142h151v-484q0 -77 -67 -77h-82l-13 48l78 -3q39 0 39 42v429h-107q-4 -33 -4 -61l-6 -59q24 -35 48.5 -75t51.5 -84l-28 -41
q-23 49 -43 86t-36 66q-13 -67 -32 -122t-46 -102l-29 38q65 117 79 311l1 43h-114q-2 -15 -2.5 -27t-1.5 -24q-3 -32 -7 -60q19 -23 38.5 -53.5t42.5 -70.5l-32 -31q-16 30 -29.5 56t-27.5 48q-24 -120 -76 -205l-30 37q66 111 80 299l1 31h-100v-520h-46v565h148l3 142
h-168v48h546zM619 524q1 33 1.5 68t0.5 74h-113l-3 -142h114z" />
    <glyph glyph-name="cid1509" unicode="&#x4fee;" 
d="M574 772q-5 -18 -14.5 -37.5t-18.5 -37.5h267v-42q-26 -48 -63 -87.5t-86 -73.5q85 -43 196 -68l-20 -46q-133 32 -221 84q-49 -26 -105.5 -47.5t-121.5 -39.5l-20 43q117 29 203 73q-67 48 -101 109q-16 -16 -33 -30t-35 -27l-28 36q114 80 154 198zM499 636
q38 -68 117 -117q87 56 138 134h-241q-3 -4 -7 -8t-7 -9zM278 755q-16 -52 -37 -99.5t-43 -92.5v-608h-48v527q-23 -34 -48 -67t-53 -64l-15 50q139 165 198 373zM336 618v-506h-46v506h46zM686 374q-26 -23 -52 -40.5t-52 -32.5q-29 -15 -65.5 -30t-79.5 -29l-25 37
q81 23 138 52q55 28 100 65zM768 304q-108 -138 -314 -197l-18 42q198 57 297 181zM398 -5q151 43 250 100q97 56 164 150l36 -26q-30 -46 -74 -87t-106 -78q-123 -67 -250 -102z" />
    <glyph glyph-name="cid1510" unicode="&#x4fef;" 
d="M470 376q-17 -22 -34.5 -43t-37.5 -41l-14 45q50 57 85.5 120.5t58.5 134.5l42 -19q-10 -34 -24 -63.5t-30 -59.5v-493h-46v419zM734 458v119h47v-119h74v-47h-74v-384q0 -69 -71 -69h-84l-9 46l38 -2t39 -1q40 0 40 37v373h-155v47h155zM586 781q10 -22 20 -46.5
t19 -53.5h221v-46h-481v-230q-6 -282 -90 -448l-37 32q76 152 78 416v276h258q-9 25 -18.5 47t-21.5 43zM605 342q21 -42 40 -87t37 -94l-41 -20q-34 100 -75 181zM147 490q-23 -37 -48.5 -71.5t-52.5 -67.5l-16 52q131 165 189 378l46 -22q-15 -49 -32.5 -94t-38.5 -88
v-623h-47v536z" />
    <glyph glyph-name="cid1511" unicode="&#x4ff1;" 
d="M167 483q-51 -72 -115 -137l-17 51q158 169 226 379l45 -20q-38 -107 -91 -196v-606h-48v529zM766 194h92v-47h-573v47h96v541h385v-541zM719 194v98h-292v-98h292zM719 333v93h-292v-93h292zM719 469v88h-292v-88h292zM719 599v94h-292v-94h292zM524 99
q-80 -83 -198 -147l-30 39q59 30 106 64.5t88 74.5zM655 132q103 -68 184 -143l-31 -35q-44 41 -88.5 78t-91.5 67z" />
    <glyph glyph-name="cid15236" unicode="&#x5009;" 
d="M251 390q0 -18 -1 -35.5t-2 -33.5h425v80h-422v-11zM673 522h-422v-81h422v81zM241 278q-27 -183 -134 -318l-38 33q130 152 134 397v174h254q-23 43 -50 79l39 21q32 -47 62 -100h212v-286h-479zM470 768q170 -115 385 -204l-27 -42q-223 100 -378 202
q-153 -102 -377 -202l-26 42q215 89 385 204h38zM745 -43h-48v39h-403v-41h-48v255h499v-253zM697 39v129h-403v-129h403z" />
    <glyph glyph-name="cid15238" unicode="&#x500b;" 
d="M291 756q-16 -54 -38 -103.5t-48 -96.5v-599h-48v522q-51 -72 -108 -132l-15 50q147 165 215 379zM830 -43h-45v54h-416v-54h-46v779h507v-779zM785 56v637h-416v-637h416zM557 534v109h42v-109h139v-41h-139v-116h99v-248h-237v248h96v116h-138v41h138zM657 338h-157
v-171h157v171z" />
    <glyph glyph-name="cid1517" unicode="&#x500d;" 
d="M540 681q-10 27 -18.5 49t-18.5 42l49 9q19 -44 35 -100h238v-46h-519v46h234zM442 434q-24 74 -60 144l44 18q35 -66 65 -162h134q19 38 35.5 79t30.5 85l48 -18q-28 -82 -62 -146h171v-49h-578v49h172zM762 -42h-50v53h-312v-53h-48v332h410v-332zM712 59v183h-312
v-183h312zM147 484q-23 -35 -48.5 -68.5t-53.5 -65.5l-15 52q137 168 199 379l45 -21q-16 -51 -36.5 -100t-43.5 -94v-612h-47v530z" />
    <glyph glyph-name="cid15241" unicode="&#x5011;" 
d="M152 493q-45 -79 -99 -148l-18 52q125 166 182 379l44 -19q-12 -46 -28 -88.5t-32 -81.5v-627h-49v533zM346 453h134v104h-134v-104zM480 698h-134v-100h134v100zM638 453h140v104h-140v-104zM778 698h-140v-100h140v100zM526 411h-180v-451h-46v782h226v-331zM591 410
v332h232v-712q0 -64 -61 -64q-30 0 -58.5 0.5t-57.5 1.5l-12 45q31 -1 58 -1.5t53 -0.5q33 0 33 35v364h-187z" />
    <glyph glyph-name="cid1519" unicode="&#x5012;" 
d="M575 48q-75 -21 -155.5 -39t-168.5 -30l-11 46q38 5 75.5 11t73.5 14v188h-128v46h128v110h48v-110h125v-46h-125v-178q36 9 70.5 17.5t67.5 17.5v-47zM571 733v-45h-163q-48 -149 -90 -222q48 6 93.5 12.5t87.5 16.5q-12 26 -25.5 53t-28.5 55l35 23q32 -59 56 -108
t39 -92l-37 -26q-6 15 -11.5 29t-11.5 29q-59 -12 -122.5 -21.5t-132.5 -18.5l-11 42q6 2 10.5 2.5t7.5 1.5q21 31 44.5 86.5t50.5 137.5h-97v45h306zM653 -35l-11 46q49 -4 92 -4q40 0 40 39v723h47v-735q0 -69 -69 -69h-99zM668 690v-557h-45v557h45zM137 488
q-39 -70 -87 -134l-15 51q113 163 161 373l44 -21q-12 -44 -25 -85t-30 -81v-637h-48v534z" />
    <glyph glyph-name="cid1521" unicode="&#x5018;" 
d="M595 776v-270h220v-467q0 -81 -75 -81h-76l-13 48l73 -2q45 0 45 46v409h-402v-503h-47v550h226v270h49zM677 359v-250h-218v250h218zM632 317h-129v-166h129v166zM820 719q-23 -51 -50.5 -92.5t-59.5 -77.5l-36 27q61 68 104 162zM379 731q45 -78 78 -163l-42 -17
q-19 48 -38.5 88.5t-42.5 75.5zM156 479q-24 -36 -51 -68.5t-57 -62.5l-15 53q150 165 217 378l44 -21q-17 -55 -40 -105t-49 -98v-601h-49v525z" />
    <glyph glyph-name="cid1522" unicode="&#x5019;" 
d="M268 755q-31 -106 -76 -193v-608h-45v526q-23 -35 -47 -68.5t-52 -65.5l-15 51q132 169 192 377zM329 612v-528h-47v528h47zM692 568v122h-270v45h317v-167h93v-44h-453v44h313zM472 376q-30 -50 -67 -92l-31 37q35 35 61 78.5t47 97.5l41 -9l-14 -34t-14 -32h315v-46
h-180v-3q0 -31 -2.5 -61t-8.5 -58h228v-43h-213q34 -62 89 -115.5t135 -101.5l-31 -38q-161 107 -228 234q-62 -161 -239 -236l-29 38q171 69 226 219h-182v43h195q12 54 12 109v13h-110z" />
    <glyph glyph-name="cid1523" unicode="&#x501a;" 
d="M542 696q6 27 7 56v21h46v-21q0 -16 -1 -29t-2 -27h239v-47h-252q-4 -9 -7 -18t-7 -18q68 -23 130.5 -49.5t119.5 -57.5l-27 -43q-60 37 -122 65t-124 50l-8 -13q-59 -64 -198 -102l-25 42q130 34 184 92q21 23 33 52h-210v47h224zM858 426v-46h-89v-354q0 -67 -72 -67
h-115l-10 47q56 -3 107 -3q42 0 42 34v343h-453v46h590zM604 299v-212h-271v212h271zM557 259h-178v-130h178v130zM152 483q-46 -68 -102 -129l-15 51q138 161 201 373l46 -21q-17 -52 -37 -100.5t-44 -92.5v-610h-49v529z" />
    <glyph glyph-name="cid1525" unicode="&#x501f;" 
d="M159 484q-24 -39 -52 -76t-58 -72l-15 52q70 85 120 182.5t81 208.5l44 -22q-29 -98 -72 -184v-619h-48v530zM427 667v105h49v-105h174v105h49v-105h131v-44h-131v-129h154v-46h-577v46h151v129h-126v44h126zM650 494v129h-174v-129h174zM777 -40h-48v45h-327v-45h-46
v405h421v-405zM729 50v113h-327v-113h327zM729 208v113h-327v-113h327z" />
    <glyph glyph-name="cid1526" unicode="&#x5021;" 
d="M773 736v-313h-408v313h408zM724 557h-312v-91h312v91zM724 601v91h-312v-91h312zM821 -44h-50v45h-404v-45h-48v383h502v-383zM771 46v104h-404v-104h404zM771 193v102h-404v-102h404zM157 480q-48 -73 -112 -137l-15 51q154 173 221 386l44 -21q-17 -55 -39.5 -104
t-48.5 -98v-603h-50v526z" />
    <glyph glyph-name="cid1531" unicode="&#x502a;" 
d="M374 369h372v135h-158v45h158v134h-147v44h192v-403h-132v-270q0 -39 39 -39h53q29 0 39 16q8 11 13 40t7 80l46 -14q-5 -58 -12 -95t-19 -51q-21 -23 -64 -23h-78q-73 0 -73 77v279h-107q-10 -151 -50 -227q-22 -41 -61.5 -76.5t-95.5 -64.5l-31 38q100 52 144 123
q38 67 47 207h-127v380q91 24 173 67l28 -38q-66 -36 -156 -65v-118h153v-45h-153v-136zM149 483q-45 -69 -102 -134l-16 52q137 169 199 380l46 -22q-34 -106 -80 -194v-611h-47v529z" />
    <glyph glyph-name="cid15254" unicode="&#x502b;" 
d="M731 561v-45h-355v45h355zM344 -41h-46v471h499v-402q0 -66 -65 -66h-75l-13 45l73 -2q33 0 33 33v156h-110v-203h-43v203h-102v-203h-42v203h-109v-235zM750 384h-110v-146h110v146zM495 384v-146h102v146h-102zM344 384v-146h109v146h-109zM573 770q42 -61 113 -115
t172 -102l-26 -42q-190 88 -280 211q-111 -138 -276 -213l-27 42q92 41 161.5 96.5t119.5 122.5h43zM287 759q-34 -109 -89 -203v-602h-47v527q-23 -33 -48 -64.5t-51 -60.5l-17 51q145 166 206 373z" />
    <glyph glyph-name="cid1535" unicode="&#x503a;" 
d="M549 721v55h49v-55h228v-43h-228v-68h206v-40h-206v-69h261v-43h-571v43h261v69h-203v40h203v68h-227v43h227zM797 103h-49v244h-343v-251h-48v295h440v-288zM604 300q0 -107 -38 -183q-51 -100 -225 -161l-31 37q155 54 206 135q40 70 40 172h48zM622 105
q129 -45 229 -111l-26 -40q-115 73 -229 113zM154 490q-47 -70 -108 -137l-16 51q143 166 207 376l45 -21q-31 -100 -78 -185v-620h-50v536z" />
    <glyph glyph-name="uni503C" unicode="&#x503c;" 
d="M608 772q-2 -23 -3.5 -44.5t-4.5 -41.5h231v-45h-235q-5 -50 -14 -90h187v-521h88v-46h-583v46h95v521h166q8 46 13 90h-236v45h240q2 24 4 47t5 46zM722 30v92h-307v-92h307zM722 164v88h-307v-88h307zM722 292v87h-307v-87h307zM722 420v85h-307v-85h307zM168 499
q-26 -40 -53.5 -77t-58.5 -72l-16 53q139 164 201 375l45 -21q-16 -45 -32.5 -88.5t-37.5 -83.5v-628h-48v542z" />
    <glyph glyph-name="cid1537" unicode="&#x503e;" 
d="M453 469l-107 -13v-313q61 24 111 63l9 -43q-40 -26 -83 -47.5t-93 -41.5l-11 45q22 9 22 37v609h45v-266l107 13v-43zM261 757q-31 -92 -72 -173v-626h-49v545q-18 -30 -40.5 -58.5t-46.5 -55.5l-17 48q125 149 182 339zM856 737v-45h-173q-9 -60 -21 -113h161v-424h-46
v379h-232v-379h-46v424h116q14 56 18 113h-165v45h388zM713 132q88 -72 148 -144l-33 -34q-26 35 -61.5 72t-82.5 78zM683 474v-198q-4 -131 -57 -206q-53 -74 -178 -113l-24 38q116 39 168 104q44 72 46 177v198h45z" />
    </font>
</defs>
</svg>
