<?xml version="1.0" standalone="no"?>
<!DOCTYPE svg PUBLIC "-//W3C//DTD SVG 1.1//EN" "http://www.w3.org/Graphics/SVG/1.1/DTD/svg11.dtd" >
<svg>
<metadata>
Created by FontForge 20120731 at Thu Aug 22 09:21:40 2019
 By www
Copyright (c) 2015 DynaComware. All rights reserved.
</metadata>
<defs>
<font id="SFProPingFangSC-Medium" horiz-adv-x="887" >
  <font-face 
    font-family="PingFang SC"
    font-weight="500"
    font-stretch="normal"
    units-per-em="1000"
    panose-1="2 11 6 0 0 0 0 0 0 0"
    ascent="859"
    descent="-141"
    bbox="-52 -131 933 852"
    underline-thickness="69"
    underline-position="-99"
    unicode-range="U+000D-2F894"
  />
<missing-glyph 
 />
    <glyph glyph-name=".notdef" 
 />
    <glyph glyph-name=".null" horiz-adv-x="0" 
 />
    <glyph glyph-name="nonmarkingreturn" horiz-adv-x="333" 
 />
    <glyph glyph-name="cid1" horiz-adv-x="0" 
 />
    <glyph glyph-name="cid2" unicode="&#xd;" horiz-adv-x="295" 
 />
    <glyph glyph-name="cid98" horiz-adv-x="0" 
 />
    <glyph glyph-name="cid112" unicode="&#xad;" horiz-adv-x="295" 
d="M37 313h222v-78h-222v78z" />
    <glyph glyph-name="cid120" unicode="&#xb5;" horiz-adv-x="512" 
d="M148 503v-287q0 -106 103 -106q38 0 70 29q33 31 43 83v281h94v-460h-94v63q-17 -19 -31.5 -32.5t-26.5 -22.5q-34 -20 -74 -20q-50 0 -84 31v-193h-95v634h95z" />
    <glyph glyph-name="cid224" unicode="&#x138;" horiz-adv-x="485" 
d="M53 503h95v-189l197 189h122l-203 -189l221 -271h-120l-166 210l-51 -49v-161h-95v460z" />
    <glyph glyph-name="cid228" unicode="&#x140;" horiz-adv-x="350" 
d="M286 408q20 0 33 -13q14 -14 14 -35q0 -17 -14 -32q-13 -13 -33 -13t-33 13q-14 15 -14 32q0 21 14 35q13 13 33 13zM158 689v-646h-94v646h94z" />
    <glyph glyph-name="cid233" unicode="&#x149;" horiz-adv-x="597" 
d="M111 689l-22 -167h-72l2 167h92zM372 515q171 0 171 -189v-283h-94v275q0 118 -107 118q-41 0 -70 -29q-33 -33 -37 -87v-277h-96v460h96v-57q26 34 59 51q34 18 78 18z" />
    <glyph glyph-name="cid234" unicode="&#x14a;" horiz-adv-x="645" 
d="M159 677l324 -469h4v469h96v-677q0 -131 -140 -131h-55v77h47q52 0 52 57v45l-326 472h-2v-477h-98v634h98z" />
    <glyph glyph-name="cid235" unicode="&#x14b;" horiz-adv-x="511" 
d="M286 515q171 0 171 -189v-326q0 -131 -140 -131h-43v77h35q54 0 54 57v315q0 118 -108 118q-41 0 -70 -29q-33 -33 -37 -87v-277h-95v460h95v-57q25 34 60 51q33 18 78 18z" />
    <glyph glyph-name="cid262" unicode="&#x17f;" horiz-adv-x="334" 
d="M330 677v-79h-82q-22 0 -34 -12q-11 -13 -11 -36v-507h-93v382h-106v78h106v49q0 59 31 91q33 34 94 34h95z" />
    <glyph glyph-name="cid274" unicode="&#x2bb;" horiz-adv-x="443" 
d="M291 731q-35 -12 -59 -43q-24 -30 -23 -62q7 4 22 4q28 0 46 -19q19 -20 19 -48q0 -29 -19 -48q-22 -18 -51 -18q-35 0 -58 30q-21 26 -21 71q0 69 38 118q39 52 106 69v-54z" />
    <glyph glyph-name="cid278" unicode="&#x2c9;" horiz-adv-x="443" 
d="M84 805h274v-58h-274v58z" />
    <glyph glyph-name="cid425" unicode="&#x2ca;" horiz-adv-x="443" 
d="M212 842h104l-126 -129h-62z" />
    <glyph glyph-name="cid426" unicode="&#x2cb;" horiz-adv-x="443" 
d="M128 842h103l85 -129h-62z" />
    <glyph glyph-name="cid29219" unicode="&#x2cd;" horiz-adv-x="443" 
d="M80 -2h284v-78h-284v78z" />
    <glyph glyph-name="cid285" unicode="&#x2ee;" horiz-adv-x="443" 
d="M321 786q36 0 58 -28q21 -29 21 -74q0 -69 -40 -119q-38 -47 -105 -67v55q34 11 58 41q24 31 24 63q-8 -4 -21 -4q-14 0 -25.5 5t-20.5 13q-19 20 -19 49t19 47q19 19 51 19zM115 786q36 0 58 -28q21 -26 21 -74q0 -69 -38 -119q-41 -47 -107 -67v55q35 12 60 41
q23 32 23 63q-9 -4 -22 -4q-14 0 -25.5 5t-20.5 13q-18 19 -18 49t20 47q16 19 49 19z" />
    <glyph glyph-name="cid311" unicode="&#x338;" horiz-adv-x="443" 
d="M347 515l41 -27l-292 -458l-40 27z" />
    <glyph glyph-name="cid312" unicode="&#x340;" horiz-adv-x="443" 
d="M128 684h103l85 -130h-62z" />
    <glyph glyph-name="cid313" unicode="&#x341;" horiz-adv-x="443" 
d="M212 684h104l-126 -130h-62z" />
    <glyph glyph-name="cid314" unicode="&#x344;" horiz-adv-x="443" 
d="M363 814l-126 -130h-62l84 130h104zM307 654q17 0 33 -13q14 -14 14 -34t-14 -33q-16 -13 -33 -13q-19 0 -33 13t-14 33t14 34q14 13 33 13zM137 654q19 0 34 -13q13 -14 13 -34t-13 -33q-15 -13 -34 -13q-18 0 -33 13q-14 13 -14 33t14 34q15 13 33 13z" />
    <glyph glyph-name="cid539" unicode="&#x2010;" horiz-adv-x="295" 
d="M37 402h222v-78h-222v78z" />
    <glyph glyph-name="cid325" unicode="&#x2015;" 
d="M0 407h887v-89h-887v89z" />
    <glyph glyph-name="cid540" unicode="&#x2016;" horiz-adv-x="443" 
d="M89 732h56v-738h-56v738zM298 732h56v-738h-56v738z" />
    <glyph glyph-name="cid326" unicode="&#x2018;" horiz-adv-x="322" 
d="M248 731q-35 -12 -59 -43q-25 -30 -24 -62q6 4 22 4q27 0 45 -19q20 -20 20 -48q0 -29 -20 -48q-19 -18 -50 -18q-34 0 -57 30q-23 26 -23 71q0 69 38 118q40 52 108 69v-54z" />
    <glyph glyph-name="cid327" unicode="&#x2019;" horiz-adv-x="322" 
d="M138 786q36 0 56 -28q24 -27 24 -74q0 -66 -39 -119q-39 -47 -107 -67v55q35 11 60 41q22 30 22 63q-8 -4 -21 -4q-12 0 -23.5 5t-21.5 13q-19 19 -19 49q0 29 18 47q22 19 51 19z" />
    <glyph glyph-name="cid329" unicode="&#x201c;" horiz-adv-x="528" 
d="M454 731q-35 -12 -61 -43q-24 -29 -21 -62q7 4 20 4q29 0 47 -19q19 -21 19 -48q0 -29 -20 -48q-19 -18 -50 -18q-35 0 -58 30q-22 26 -22 71q0 68 39 118q39 52 107 69v-54zM248 731q-35 -12 -59 -43q-25 -30 -24 -62q6 4 22 4q27 0 45 -19q20 -20 20 -48q0 -29 -20 -48
q-19 -18 -50 -18q-34 0 -57 30q-23 26 -23 71q0 69 38 118q40 52 108 69v-54z" />
    <glyph glyph-name="cid330" unicode="&#x201d;" horiz-adv-x="528" 
d="M344 786q36 0 57 -28q22 -29 22 -74q0 -69 -38 -119q-39 -47 -107 -67v55q35 12 59 41q23 32 23 63q-8 -4 -21 -4t-25 5t-21 13q-19 20 -19 49t20 47q19 19 50 19zM138 786q36 0 56 -28q24 -27 24 -74q0 -66 -39 -119q-39 -47 -107 -67v55q35 11 60 41q22 30 22 63
q-8 -4 -21 -4q-12 0 -23.5 5t-21.5 13q-19 19 -19 49q0 29 18 47q22 19 51 19z" />
    <glyph glyph-name="cid29220" unicode="&#x2027;" horiz-adv-x="443" 
d="M222 430q28 0 46 -20q21 -20 21 -47q0 -14 -5.5 -25.5t-15.5 -21.5q-18 -21 -46 -21q-29 0 -47 21q-21 20 -21 47q0 30 21 47q18 20 47 20z" />
    <glyph glyph-name="cid544" unicode="&#x2035;" horiz-adv-x="443" 
d="M128 842h103l85 -129h-62z" />
    <glyph glyph-name="cid545" unicode="&#x203b;" 
d="M443 702q28 0 48 -18q19 -20 19 -46q0 -27 -19 -46q-22 -17 -48 -17q-24 0 -45 17q-19 19 -19 46q0 28 19 46q18 18 45 18zM443 420l212 214l59 -58l-213 -213l213 -214l-59 -58l-212 213l-213 -213l-58 58l214 214l-214 213l58 58zM171 428q30 0 46 -17q19 -17 19 -45
q0 -29 -19 -46q-20 -18 -46 -18q-29 0 -46 18q-20 19 -20 46q0 28 20 45q16 17 46 17zM714 428q32 0 48 -17q19 -17 19 -45q0 -29 -19 -46q-19 -18 -48 -18q-27 0 -45 18t-18 46t18 45q17 17 45 17zM443 156q30 0 48 -17q19 -19 19 -46q0 -26 -19 -47q-22 -16 -48 -16
q-27 0 -45 17q-19 18 -19 46q0 29 19 46q17 17 45 17z" />
    <glyph glyph-name="cid546" unicode="&#x2103;" horiz-adv-x="821" 
d="M130 783q46 0 80 -35q32 -32 32 -79q0 -44 -32 -79q-35 -33 -80 -33q-46 0 -78 33q-35 33 -35 79q0 48 35 79q31 35 78 35zM130 732q-27 0 -43 -18q-18 -18 -18 -45q0 -26 18 -44q17 -17 43 -17t45 17q18 18 18 44q0 27 -18 45q-17 18 -45 18zM510 689q54 0 99.5 -14
t81.5 -43q71 -57 85 -152h-94q-16 65 -62 94q-45 30 -114 30q-101 0 -153 -70q-48 -64 -48 -175q0 -114 48 -175q48 -67 157 -67q67 0 115 34q47 37 66 112h94q-23 -112 -100 -173q-75 -59 -174 -59q-155 0 -235 100q-69 86 -69 228t71 230q79 100 232 100z" />
    <glyph glyph-name="cid548" unicode="&#x2109;" horiz-adv-x="775" 
d="M130 783q46 0 80 -35q32 -32 32 -79q0 -44 -32 -79q-35 -33 -80 -33q-46 0 -78 33q-35 33 -35 79q0 48 35 79q31 35 78 35zM130 732q-27 0 -43 -18q-18 -18 -18 -45q0 -26 18 -44q17 -17 43 -17t45 17q18 18 18 44q0 27 -18 45q-17 18 -45 18zM739 677v-83h-332v-184h313
v-83h-313v-284h-97v634h429z" />
    <glyph glyph-name="cid365" unicode="&#x2126;" horiz-adv-x="660" 
d="M330 689q135 0 216 -91q77 -86 77 -215q0 -172 -134 -257h134v-83h-238v94q72 41 103 91q39 63 39 157q0 96 -56 157q-60 62 -141 62q-84 0 -140 -62q-58 -60 -58 -157q0 -94 40 -157q33 -52 104 -91v-94h-240v83h136q-137 85 -137 257q0 132 79 215q82 91 216 91z" />
    <glyph glyph-name="cid366" unicode="&#x212b;" horiz-adv-x="597" 
d="M298 852q31 0 56 -22q22 -25 22 -56q0 -29 -22 -54q-25 -22 -56 -22q-30 0 -54 22q-22 23 -22 54q0 33 22 56q23 22 54 22zM298 816q-14 0 -28 -11q-11 -11 -11 -31q0 -16 11 -28q13 -12 28 -12q18 0 31 12q12 13 12 28q0 20 -12 31q-15 11 -31 11zM354 677l243 -634
h-103l-59 165h-273l-59 -165h-103l243 634h111zM405 287l-104 287h-4l-106 -287h214z" />
    <glyph glyph-name="cid367" unicode="&#x212e;" horiz-adv-x="714" 
d="M357 609q132 0 222 -83q92 -86 92 -216v-17h-504v-171q37 -35 85 -53q24 -9 50.5 -13.5t54.5 -4.5q84 0 146 36q63 36 102 107h44q-43 -88 -119 -135q-78 -48 -173 -48q-131 0 -221 82q-91 84 -91 217q0 131 91 216q89 83 221 83zM357 570q-55 0 -104 -19
q-24 -10 -46 -23t-40 -32v-164h382v164q-20 19 -40.5 32t-44.5 23q-50 19 -107 19z" />
    <glyph glyph-name="cid550" unicode="&#x2160;" 
d="M396 677h96v-634h-96v634z" />
    <glyph glyph-name="cid551" unicode="&#x2161;" 
d="M274 677h95v-634h-95v634zM518 677h97v-634h-97v634z" />
    <glyph glyph-name="cid552" unicode="&#x2162;" 
d="M152 677h98v-634h-98v634zM396 677h96v-634h-96v634zM638 677h96v-634h-96v634z" />
    <glyph glyph-name="cid553" unicode="&#x2163;" 
d="M90 677h97v-634h-97v634zM267 677h105l164 -518h2l162 518h105l-211 -634h-115z" />
    <glyph glyph-name="cid554" unicode="&#x2164;" 
d="M158 677h105l180 -525h2l180 525h105l-228 -634h-116z" />
    <glyph glyph-name="cid555" unicode="&#x2165;" 
d="M81 677h105l162 -518h4l162 518h105l-211 -634h-115zM699 677h98v-634h-98v634z" />
    <glyph glyph-name="cid556" unicode="&#x2166;" 
d="M21 677h105l140 -501h2l142 501h104l-195 -634h-104zM566 677h96v-634h-96v634zM751 677h97v-634h-97v634z" />
    <glyph glyph-name="cid557" unicode="&#x2167;" 
d="M12 677h100l107 -484h3l109 484h100l-157 -634h-104zM466 677h94v-634h-94v634zM617 677h93v-634h-93v634zM766 677h95v-634h-95v634z" />
    <glyph glyph-name="cid558" unicode="&#x2168;" 
d="M76 677h104v-634h-104v634zM265 677h120l153 -229l154 229h118l-214 -306l230 -328h-119l-169 251l-170 -251h-117l227 328z" />
    <glyph glyph-name="cid559" unicode="&#x2169;" 
d="M172 677h117l154 -229l154 229h117l-213 -306l230 -328h-117l-171 251l-169 -251h-118l229 328z" />
    <glyph glyph-name="cid560" unicode="&#x216a;" 
d="M77 677h117l154 -229l154 229h118l-213 -306l229 -328h-118l-170 251l-168 -251h-120l229 328zM707 677h104v-634h-104v634z" />
    <glyph glyph-name="cid561" unicode="&#x216b;" 
d="M25 677h120l123 -221l125 221h120l-184 -312l188 -322h-118l-131 229l-130 -229h-117l189 322zM564 677h104v-634h-104v634zM748 677h105v-634h-105v634z" />
    <glyph glyph-name="cid562" unicode="&#x2170;" 
d="M443 686q28 0 48 -18q19 -18 19 -45q0 -25 -19 -46q-22 -19 -48 -19q-24 0 -45 19q-19 19 -19 46q0 30 19 45q18 18 45 18zM491 503v-460h-95v460h95z" />
    <glyph glyph-name="cid563" unicode="&#x2171;" 
d="M321 686q31 0 47 -18q20 -16 20 -45q0 -14 -5 -25.5t-15 -20.5q-21 -19 -47 -19q-25 0 -45 19q-18 19 -18 46q0 29 18 45q18 18 45 18zM565 686q29 0 49 -18q17 -18 17 -45q0 -25 -17 -46q-22 -19 -49 -19q-24 0 -44 19t-20 46q0 30 20 45q18 18 44 18zM368 503v-460h-93
v460h93zM614 503v-460h-96v460h96z" />
    <glyph glyph-name="cid564" unicode="&#x2172;" 
d="M215 686q29 0 47 -18q20 -16 20 -45q0 -14 -5.5 -25.5t-14.5 -20.5q-21 -19 -47 -19q-25 0 -45 19q-19 19 -19 46q0 29 19 45q17 18 45 18zM443 686q28 0 48 -18q19 -18 19 -45q0 -25 -19 -46q-22 -19 -48 -19q-24 0 -45 19q-19 19 -19 46q0 30 19 45q18 18 45 18z
M672 686q28 0 48 -18q18 -18 18 -45q0 -25 -18 -46q-22 -19 -48 -19t-46 19q-19 19 -19 46q0 29 19 45q18 18 46 18zM262 503v-460h-94v460h94zM491 503v-460h-95v460h95zM720 503v-460h-95v460h95z" />
    <glyph glyph-name="cid565" unicode="&#x2173;" 
d="M183 686q30 0 47 -18q19 -16 19 -45q0 -27 -19 -46q-21 -19 -47 -19q-25 0 -46 19q-19 19 -19 46q0 30 19 45q19 18 46 18zM230 503v-460h-94v460h94zM427 503l116 -340l116 340h102l-170 -460h-95l-170 460h101z" />
    <glyph glyph-name="cid566" unicode="&#x2174;" 
d="M227 503h102l114 -342l115 342h102l-169 -460h-95z" />
    <glyph glyph-name="cid567" unicode="&#x2175;" 
d="M229 503l115 -340l115 340h103l-171 -460h-95l-169 460h102zM703 686q29 0 49 -18q18 -18 18 -45q0 -26 -19 -46q-19 -19 -48 -19q-25 0 -46 19q-17 19 -17 46q0 29 17 45q19 18 46 18zM751 503v-460h-94v460h94z" />
    <glyph glyph-name="cid568" unicode="&#x2176;" 
d="M591 686q27 0 47 -18q17 -16 17 -45q0 -27 -17 -46q-21 -19 -47 -19q-27 0 -45 19q-20 19 -20 46q0 30 20 45q17 18 45 18zM789 686q27 0 47 -18q19 -16 19 -45q0 -26 -20 -46q-21 -19 -46 -19q-26 0 -46 19q-19 21 -19 46q0 27 19 45q18 18 46 18zM138 503l116 -340
l114 340h103l-170 -460h-95l-171 460h103zM638 503v-460h-95v460h95zM836 503v-460h-93v460h93z" />
    <glyph glyph-name="cid569" unicode="&#x2177;" 
d="M494 686q25 0 45 -18q18 -16 18 -45q0 -27 -18 -46q-10 -10 -20.5 -14.5t-24.5 -4.5q-24 0 -45 19q-16 19 -16 46q0 29 16 45q19 18 45 18zM652 686q26 0 46 -18q16 -16 16 -45q0 -27 -16 -46q-21 -19 -46 -19t-44 19q-19 20 -19 46q0 29 19 45q18 18 44 18zM809 686
q25 0 45 -18q18 -18 18 -45q0 -25 -18 -46q-21 -19 -45 -19q-25 0 -44 19q-18 19 -18 46q0 29 18 45q17 18 44 18zM124 503l93 -337l93 337h100l-149 -460h-89l-148 460h100zM540 503v-460h-90v460h90zM698 503v-460h-91v460h91zM854 503v-460h-90v460h90z" />
    <glyph glyph-name="cid570" unicode="&#x2178;" 
d="M184 686q28 0 47 -18q20 -16 20 -45q0 -26 -20 -46q-21 -19 -47 -19q-25 0 -46 19q-17 19 -17 46q0 29 17 45q19 18 46 18zM231 503v-460h-94v460h94zM439 503l102 -146l100 146h110l-159 -215l178 -245h-110l-119 176l-121 -176h-111l180 245l-159 215h109z" />
    <glyph glyph-name="cid571" unicode="&#x2179;" 
d="M233 503h110l101 -146l101 146h109l-159 -215l180 -245h-111l-120 176l-121 -176h-110l179 245z" />
    <glyph glyph-name="cid375" unicode="&#x2206;" horiz-adv-x="614" 
d="M254 677h106l244 -634h-595zM307 553l-162 -424h325z" />
    <glyph glyph-name="cid593" unicode="&#x2236;" horiz-adv-x="443" 
d="M222 677q29 0 46 -18q19 -17 19 -46q0 -27 -19 -46q-19 -16 -46 -16q-29 0 -47 16q-18 21 -18 46q0 28 18 46q17 18 47 18zM222 171q28 0 46 -19q19 -17 19 -44q0 -28 -19 -47q-19 -18 -46 -18q-29 0 -47 19q-18 21 -18 46q0 26 18 44q18 19 47 19z" />
    <glyph glyph-name="cid388" unicode="&#x22c5;" horiz-adv-x="309" 
d="M154 429q28 0 48 -19q17 -18 17 -45q0 -29 -17 -48q-11 -9 -23 -14t-25 -5q-14 0 -25 5t-20 14q-21 19 -21 48q0 26 21 45q16 19 45 19z" />
    <glyph glyph-name="cid8004" unicode="&#x9f99;" 
d="M554 -34q-87 0 -87 95v12q-63 -36 -134 -62l-47 71q50 16 94.5 39t86.5 51v331h-95q-6 -46 -12.5 -88t-16.5 -81q-53 -229 -255 -380l-55 67q172 131 227 327q8 35 15.5 73.5t12.5 81.5h-235v82h243q7 85 7 186h83q0 -50 -2 -96t-4 -90h459v-82h-290v-263q45 42 83.5 93
t67.5 112l75 -39q-45 -85 -101 -153.5t-125 -122.5v-50q0 -38 31 -38h134q20 0 31 20q11 25 14 129l79 -25q-10 -145 -35 -174q-24 -26 -73 -26h-176zM577 776q50 -31 90.5 -60.5t74.5 -59.5l-58 -58q-58 57 -162 124z" />
    <glyph glyph-name="cid8004" unicode="&#x2ef0;" 
d="M554 -34q-87 0 -87 95v12q-63 -36 -134 -62l-47 71q50 16 94.5 39t86.5 51v331h-95q-6 -46 -12.5 -88t-16.5 -81q-53 -229 -255 -380l-55 67q172 131 227 327q8 35 15.5 73.5t12.5 81.5h-235v82h243q7 85 7 186h83q0 -50 -2 -96t-4 -90h459v-82h-290v-263q45 42 83.5 93
t67.5 112l75 -39q-45 -85 -101 -153.5t-125 -122.5v-50q0 -38 31 -38h134q20 0 31 20q11 25 14 129l79 -25q-10 -145 -35 -174q-24 -26 -73 -26h-176zM577 776q50 -31 90.5 -60.5t74.5 -59.5l-58 -58q-58 57 -162 124z" />
    <glyph glyph-name="cid7771" unicode="&#x9ad8;" 
d="M468 776l24 -72h345v-79h-788v79h351q-5 15 -11.5 29t-14.5 27zM620 -45l-20 75l68 -3q51 0 51 35v225h-551v-335h-80v407h710v-314q0 -90 -104 -90h-74zM699 584v-184h-512v184h512zM619 520h-351v-57h351v57zM625 244v-186h-362v186h362zM549 183h-210v-63h210v63z" />
    <glyph glyph-name="cid7771" unicode="&#x2fbc;" 
d="M468 776l24 -72h345v-79h-788v79h351q-5 15 -11.5 29t-14.5 27zM620 -45l-20 75l68 -3q51 0 51 35v225h-551v-335h-80v407h710v-314q0 -90 -104 -90h-74zM699 584v-184h-512v184h512zM619 520h-351v-57h351v57zM625 244v-186h-362v186h362zM549 183h-210v-63h210v63z" />
    <glyph glyph-name="cid821" unicode="&#x3001;" horiz-adv-x="538" 
d="M141 175q28 -19 54.5 -42t52.5 -49q42 -44 80 -94l-58 -50q-18 27 -37 50t-41 46q-24 25 -49.5 48.5t-51.5 44.5z" />
    <glyph glyph-name="cid822" unicode="&#x3002;" horiz-adv-x="487" 
d="M204 176q49 0 86 -34q36 -33 36 -83q0 -49 -36 -84q-37 -35 -86 -35q-50 0 -86 34q-36 33 -36 85q0 51 36 84q34 33 86 33zM204 118q-25 0 -43 -18q-19 -16 -19 -41q0 -24 19 -43q20 -16 43 -16q22 0 43 16q18 19 18 43q0 25 -18 41q-19 18 -43 18z" />
    <glyph glyph-name="cid824" unicode="&#x3005;" 
d="M450 739q-15 -50 -33.5 -95t-40.5 -89h402v-65q-88 -214 -249 -333q39 -29 75 -61.5t69 -65.5l-65 -64q-108 122 -311 267l58 56q30 -20 57 -40.5t54 -40.5q139 104 217 264h-351q-36 -60 -76.5 -109t-84.5 -89l-62 57q182 180 259 429z" />
    <glyph glyph-name="cid829" unicode="&#x300a;" horiz-adv-x="674" 
d="M397 778l75 -33l-172 -382l169 -382l-72 -32l-183 414zM549 778l71 -33l-169 -382l169 -382l-71 -32l-183 414z" />
    <glyph glyph-name="cid830" unicode="&#x300b;" horiz-adv-x="672" 
d="M124 778l184 -415l-184 -414l-71 32l171 382l-171 382zM276 778l183 -415l-183 -414l-71 32l169 382l-172 382z" />
    <glyph glyph-name="cid831" unicode="&#x300c;" horiz-adv-x="602" 
d="M284 778h291v-78h-206v-466h-85v544z" />
    <glyph glyph-name="cid832" unicode="&#x300d;" horiz-adv-x="603" 
d="M232 493h86v-544h-292v77h206v467z" />
    <glyph glyph-name="cid1246" unicode="&#x4e00;" 
d="M42 411h802v-84h-802v84z" />
    <glyph glyph-name="cid1247" unicode="&#x4e01;" 
d="M828 714v-81h-335v-576q0 -97 -97 -97h-142l-18 81q34 -2 66.5 -3t63.5 -1q43 0 43 40v556h-350v81h769z" />
    <glyph glyph-name="cid1248" unicode="&#x4e03;" 
d="M846 486l-434 -78v-326q0 -25 23 -25h252q27 0 39 17q12 21 16 132l80 -26q-4 -72 -12 -116.5t-20 -59.5q-24 -29 -88 -29h-287q-89 0 -89 94v324l-277 -51l-13 81l290 52v292h86v-275l421 75z" />
    <glyph glyph-name="cid1249" unicode="&#x4e07;" 
d="M834 717v-81h-450v-40q-3 -35 -4 -67t-4 -63h383q-1 -359 -29 -432q-30 -72 -102 -72q-30 0 -66 1.5t-79 3.5l-21 80q44 -2 80.5 -3.5t65.5 -2.5q42 1 52 58q6 29 9 100t5 190h-308q-21 -122 -58 -211q-69 -144 -224 -223l-47 75q148 82 205 211q26 69 40.5 156.5
t17.5 198.5v40h-247v81h781z" />
    <glyph glyph-name="cid1250" unicode="&#x4e08;" 
d="M496 627v143h85v-143h255v-82h-259q-15 -219 -112 -354q75 -53 172.5 -94t219.5 -71l-43 -76q-249 67 -403 179q-117 -111 -330 -175l-47 72q208 65 310 157q-138 123 -183 292l74 25q42 -147 163 -256q79 123 96 301h-439v82h441z" />
    <glyph glyph-name="cid1251" unicode="&#x4e09;" 
d="M106 710h676v-83h-676v83zM165 405h557v-82h-557v82zM42 79h804v-85h-804v85z" />
    <glyph glyph-name="cid1252" unicode="&#x4e0a;" 
d="M358 770h87v-266h329v-81h-329v-358h396v-81h-794v81h311v705z" />
    <glyph glyph-name="cid1253" unicode="&#x4e0b;" 
d="M839 731v-83h-377v-117q81 -38 163 -83t166 -97l-49 -76q-86 55 -155 97t-125 70v-490h-84v696h-332v83h793z" />
    <glyph glyph-name="cid1255" unicode="&#x4e0d;" 
d="M825 731v-83h-287l-25 -50t-26 -47v-600h-87v478q-124 -142 -310 -254l-56 73q292 166 409 400h-382v83h764zM598 488q150 -116 252 -234l-66 -66q-44 56 -105 117t-141 125z" />
    <glyph glyph-name="cid1256" unicode="&#x4e0e;" 
d="M309 768l-12 -110h477v-80h-485l-13 -127h511q0 -370 -49 -430q-52 -56 -215 -56q-23 0 -47 1t-50 2l-22 78q37 -4 62 -6t39 -2q141 0 169 47q29 53 29 288h-522l44 401zM605 251v-83h-516v83h516z" />
    <glyph glyph-name="cid1258" unicode="&#x4e11;" 
d="M636 657h-250l-29 -241h260zM274 416l27 241h-188v82h612l-47 -680h160v-81h-790v81h182l33 274h-129v83h140zM316 59h273l20 274h-262z" />
    <glyph glyph-name="cid1259" unicode="&#x4e13;" 
d="M291 508q6 23 11.5 45t10.5 45h-210v79h229q5 26 9.5 51.5t11.5 50.5l86 -8q-5 -24 -9.5 -47.5t-8.5 -46.5h370v-79h-387q-11 -47 -20 -90h460v-80h-484q-7 -26 -14 -51.5t-16 -48.5h410v-73q-62 -89 -189 -182q37 -12 71 -25.5t68 -29.5l-46 -72q-101 46 -201.5 83.5
t-204.5 63.5l44 66q48 -14 92 -26.5t86 -26.5q114 72 179 145h-430q17 43 31.5 86.5t27.5 90.5h-225v80h248z" />
    <glyph glyph-name="cid1260" unicode="&#x4e14;" 
d="M263 445v-150h362v150h-362zM625 524v137h-362v-137h362zM263 217v-152h362v152h-362zM47 65h132v675h531v-675h131v-82h-794v82z" />
    <glyph glyph-name="cid1262" unicode="&#x4e16;" 
d="M42 566h106v194h85v-194h159v202h83v-202h161v202h83v-202h127v-80h-127v-278h-327v278h-159v-415h581v-86h-666v501h-106v80zM475 486v-197h161v197h-161z" />
    <glyph glyph-name="cid1263" unicode="&#x4e18;" 
d="M243 69h300v315h-300v-315zM833 69v-82h-778v82h104v600q310 33 508 97l44 -75q-104 -30 -220.5 -53t-247.5 -38v-136h548v-80h-163v-315h205z" />
    <glyph glyph-name="cid1264" unicode="&#x4e19;" 
d="M436 323q-58 -135 -174 -216l-63 55q155 105 191 299h-210v-509h-84v590h304q4 30 4 56v52h-356v82h790v-82h-351v-52v-28.5t-2 -27.5h306v-477q0 -106 -95 -106h-107l-20 81l99 -3q40 0 40 47v377h-233q-5 -33 -16 -68q62 -43 116.5 -93.5t106.5 -108.5l-46 -72
q-50 64 -99.5 113.5t-100.5 90.5z" />
    <glyph glyph-name="cid1265" unicode="&#x4e1a;" 
d="M389 763v-696h106v696h85v-696h258v-83h-790v83h258v696h83zM821 578q-52 -228 -131 -401l-75 27q36 77 69.5 176t61.5 219zM137 601q35 -90 65 -191.5t57 -215.5l-78 -20q-23 105 -51.5 205.5t-63.5 198.5z" />
    <glyph glyph-name="cid1266" unicode="&#x4e1b;" 
d="M835 65v-82h-782v82h782zM298 747q0 -75 -3.5 -140.5t-11.5 -123.5q48 -46 88.5 -91.5t74.5 -90.5l-60 -61q-23 37 -51.5 77t-66.5 82v-2q-37 -183 -175 -304l-53 63q113 105 150 259q13 64 20 146.5t7 185.5h81zM641 763q0 -61 -4 -116.5t-9 -106.5q60 -243 208 -384
l-54 -63q-58 62 -103.5 134t-76.5 157q-44 -177 -188 -294l-54 64q130 109 168 265q29 132 32 344h81z" />
    <glyph glyph-name="cid1267" unicode="&#x4e1c;" 
d="M282 670q12 27 22 53.5t20 55.5l86 -19q-10 -23 -19 -45.5t-18 -44.5h441v-81h-479q-56 -112 -123 -199h208v120h83v-120h275v-79h-275v-268q0 -88 -92 -88h-93l-18 82q21 -2 41.5 -4t39.5 -2q39 0 39 33v247h-296l-20 74q36 41 71 92t67 112h-178v81h218zM306 201
q-88 -117 -212 -207l-54 71q124 80 206 188zM649 255q58 -51 108 -100t90 -101l-61 -61q-35 48 -83 100t-110 108z" />
    <glyph glyph-name="cid1268" unicode="&#x4e1d;" 
d="M838 65v-80h-790v80h790zM335 728q-40 -80 -79.5 -144t-80.5 -113q33 2 64 6t63 7q12 22 25.5 44.5t27.5 45.5l79 -27q-55 -93 -111 -171t-114 -141q54 6 105 13t101 18l17 -77q-76 -13 -160.5 -21.5t-178.5 -16.5l-16 81q68 16 177 175q-39 -5 -79 -9t-81 -9l-21 74
q9 5 18 12.5t18 19.5q42 59 79 125t66 139zM711 728q-38 -80 -78 -144t-81 -113q32 2 64.5 6t63.5 7q14 21 26.5 42t24.5 44l79 -26q-55 -93 -110 -170t-111 -139q56 6 109.5 12.5t104.5 17.5l17 -77q-77 -13 -163 -21t-184 -16l-14 81q67 16 173 176q-38 -5 -78.5 -9.5
t-82.5 -9.5l-21 74q10 5 18.5 12.5t16.5 19.5q43 59 79 125t67 139z" />
    <glyph glyph-name="cid14992" unicode="&#x4e1f;" 
d="M801 740v-80h-314v-114h279v-77h-279v-107h359v-82h-477q-78 -158 -133 -229q103 8 203.5 18.5t202.5 24.5q-20 26 -40 52.5t-40 52.5l65 42q58 -71 103.5 -132t77.5 -114l-69 -47l-22 36t-23 37q-130 -16 -269 -28.5t-292 -23.5l-20 76q6 1 11 3t8 4q29 21 67 78t86 150
h-241v82h357v107h-279v77h279v114h-314v80h714z" />
    <glyph glyph-name="cid14994" unicode="&#x4e21;" 
d="M46 655v82h793v-82h-352v-83h321v-511q0 -95 -94 -95h-89l-22 81l84 -5q37 0 37 39v411h-237v-293h94v215h83v-292h-438v288h82v-211h92v293h-238v-529h-83v609h321v83h-354z" />
    <glyph glyph-name="cid1270" unicode="&#x4e22;" 
d="M794 693q-68 -13 -144 -24t-163 -16v-107h279v-77h-279v-107h359v-82h-477q-78 -158 -133 -229q103 8 203.5 18.5t201.5 24.5q-19 26 -39 52.5t-41 52.5l65 42q58 -71 103.5 -132t77.5 -114l-69 -47q-12 18 -22.5 36t-23.5 37q-128 -16 -267.5 -28.5t-292.5 -23.5l-20 76
q6 1 11 3t7 4q60 43 155 228h-241v82h357v107h-279v77h279v100q-136 -6 -291 -6l-26 72q201 0 367.5 12.5t303.5 37.5z" />
    <glyph glyph-name="cid1271" unicode="&#x4e24;" 
d="M837 735v-82h-232v-120h196v-472q0 -101 -84 -101h-92l-22 81l85 -3q30 0 30 42v373h-115l-6 -59q30 -44 58 -91.5t57 -100.5l-52 -77q-43 109 -79 179q-32 -138 -109 -221l-62 55q96 104 113 315h-167q-2 -20 -5 -39t-5 -38q49 -62 96 -133l-49 -71q-19 40 -34 71.5
t-28 54.5q-33 -120 -100 -193l-61 54v-203h-85v577h195v120h-231v82h788zM170 453v-291q90 101 107 291h-107zM526 533v120h-167v-120h167z" />
    <glyph glyph-name="cid1272" unicode="&#x4e25;" 
d="M808 742v-79h-227v-202h244v-80h-622v-126q-5 -192 -113 -307l-63 56q85 90 91 251v206h224v202h-223v79h689zM502 461v202h-81v-202h81zM757 622q-23 -80 -61 -140l-68 25q17 26 32.5 59.5t27.5 73.5zM226 641q35 -61 61 -131l-69 -29q-28 74 -64 137z" />
    <glyph glyph-name="cid14996" unicode="&#x4e26;" 
d="M61 530v80h222q-19 35 -38.5 66.5t-39.5 58.5l73 34q20 -31 41.5 -64.5t40.5 -69.5l-48 -25h217q24 38 44.5 77.5t36.5 81.5l81 -29q-15 -36 -31.5 -68t-34.5 -62h200v-80h-241v-468h257v-80h-793v80h253v468h-240zM502 62v468h-117v-468h117zM183 459q21 -67 38 -139
t33 -149l-77 -16q-14 81 -31 153t-37 135zM782 443q-30 -167 -82 -291l-75 26q46 110 80 285z" />
    <glyph glyph-name="cid1273" unicode="&#x4e27;" 
d="M401 671v100h84v-100h317v-75h-317v-207h350v-79h-379q26 -68 90 -124q43 16 85 44.5t81 64.5l54 -52q-70 -68 -157 -106q92 -60 233 -105l-48 -78q-349 130 -425 356h-115v-248q48 14 87.5 28.5t73.5 29.5l17 -78q-57 -23 -124 -42t-145 -38l-25 79q34 18 34 59v210
h-120v79h349v207h-328v75h328zM199 580q20 -33 40.5 -70t39.5 -79l-70 -34q-18 43 -37.5 80t-39.5 70zM752 549q-17 -40 -37.5 -77.5t-46.5 -75.5l-69 35q27 39 48 75t37 74z" />
    <glyph glyph-name="cid1275" unicode="&#x4e2a;" 
d="M487 507v-553h-87v553h87zM480 770q56 -89 149.5 -167.5t228.5 -146.5l-50 -77q-245 127 -365 313q-143 -205 -364 -314l-50 76q243 122 378 316h73z" />
    <glyph glyph-name="cid1276" unicode="&#x4e2b;" 
d="M784 723q-128 -183 -293 -306v-463h-86v502q207 147 306 315zM191 758q69 -70 122 -130t91 -112l-71 -48q-40 55 -93.5 115.5t-121.5 129.5z" />
    <glyph glyph-name="cid1278" unicode="&#x4e2d;" 
d="M400 774h87v-152h315v-429h-83v50h-232v-296h-87v296h-230v-50h-86v429h316v152zM170 325h230v213h-230v-213zM487 325h232v213h-232v-213z" />
    <glyph glyph-name="cid1279" unicode="&#x4e30;" 
d="M127 449h273v124h-315v81h315v115h87v-115h321v-81h-321v-124h279v-83h-279v-122h343v-82h-343v-208h-87v208h-340v82h340v122h-273v83z" />
    <glyph glyph-name="cid1280" unicode="&#x4e32;" 
d="M124 686h276v86h87v-86h276v-241h-276v-76h311v-265h-311v-150h-87v150h-308v265h308v76h-276v241zM678 515v98h-191v-98h191zM400 515v98h-191v-98h191zM711 175v122h-224v-122h224zM400 175v122h-224v-122h224z" />
    <glyph glyph-name="cid1281" unicode="&#x4e34;" 
d="M294 769v-814h-84v814h84zM818 -41h-80v42h-285v-42h-81v420h446v-420zM558 80v221h-105v-221h105zM636 80h102v221h-102v-221zM602 568q37 -36 65 -67.5t47 -59.5l-65 -46q-41 59 -112 134zM146 658v-558h-80v558h80zM480 585q-23 -47 -49.5 -86.5t-55.5 -74.5l-59 71
q43 51 81 121.5t70 159.5l85 -18q-7 -23 -16 -45.5t-17 -44.5h319v-83h-358z" />
    <glyph glyph-name="cid1282" unicode="&#x4e36;" 
d="M343 539q174 -154 295 -307l-65 -65q-105 146 -291 313z" />
    <glyph glyph-name="cid1283" unicode="&#x4e38;" 
d="M320 613v153h84v-153h274l-18 -532q0 -31 27 -31h39q19 0 30 14q12 20 19 138l82 -22q-18 -161 -44 -187q-29 -24 -79 -24h-73q-86 0 -86 89l14 474h-189q-10 -124 -34 -221q36 -27 69.5 -55t66.5 -58l-49 -77q-29 30 -57.5 55t-55.5 48l-18 -38q-70 -148 -235 -229
l-47 73q158 85 219 217q4 17 11 31q-77 54 -146 94l43 66q34 -16 65 -36t62 -39q8 39 13.5 81t9.5 88h-225v81h228z" />
    <glyph glyph-name="cid1284" unicode="&#x4e39;" 
d="M212 381v358h502v-358h124v-80h-124v-258q0 -83 -89 -83h-103l-23 81q54 -3 100 -3q29 0 29 35v228h-334q-23 -211 -135 -350l-65 60q93 118 113 290h-159v80h164zM628 663h-331v-282h331v282zM427 626q42 -47 72.5 -87t53.5 -76l-65 -45q-24 36 -56 78t-72 88z" />
    <glyph glyph-name="cid1285" unicode="&#x4e3a;" 
d="M172 750q38 -38 67 -73t51 -65l-64 -46q-47 64 -117 138zM491 378q46 -52 80.5 -96t60.5 -82l-75 -51q-47 83 -134 187zM437 770v-125q-1 -22 -1.5 -44t-2.5 -44h363q0 -195 -9 -317t-25 -176q-37 -106 -126 -106q-36 0 -64.5 1t-50.5 3l-22 81q70 -6 131 -6q61 4 70 140
q5 69 7 143.5t2 154.5h-285q-10 -82 -29.5 -152t-46.5 -127q-78 -156 -259 -240l-46 74q179 91 242 230q20 46 33.5 100t22.5 115h-268v82h277q3 22 3.5 44t1.5 44v125h82z" />
    <glyph glyph-name="cid1286" unicode="&#x4e3b;" 
d="M79 545v82h321q-10 33 -22.5 64t-27.5 61l82 22q34 -80 51 -145l-3 -2h329v-82h-322v-185h279v-79h-279v-216h352v-82h-791v82h352v216h-278v79h278v185h-321z" />
    <glyph glyph-name="cid1287" unicode="&#x4e3d;" 
d="M834 732v-82h-781v82h781zM253 -45l-22 75l62 -2q27 0 27 33v437h-155v-547h-77v627h310v-533q0 -90 -81 -90h-64zM230 417q50 -94 89 -201l-66 -28q-20 58 -41.5 109t-44.5 96zM654 -45l-22 75l55 -2q33 0 33 33v437h-155v-547h-78v627h311v-535q0 -88 -86 -88h-58z
M628 418q26 -48 49 -99t43 -106l-68 -28q-38 119 -87 208z" />
    <glyph glyph-name="cid1288" unicode="&#x4e3e;" 
d="M214 759q42 -66 82 -150l-72 -35q-19 43 -38 81t-40 73zM420 770q21 -33 39.5 -69.5t38.5 -76.5l-73 -37q-33 88 -72 151zM63 490v80h502q60 93 101 203l79 -29q-46 -103 -93 -174h172v-80h-182q70 -101 213 -160l-37 -77q-79 40 -135 89v-64h-196v-87h312v-81h-312v-156
h-87v156h-312v81h312v87h-194v66q-27 -23 -58.5 -45.5t-67.5 -42.5l-47 75q147 72 208 159h-178zM400 360v91h87v-91h173q-62 59 -100 130h-239q-35 -72 -96 -130h175z" />
    <glyph glyph-name="cid1290" unicode="&#x4e43;" 
d="M684 732v-43q-10 -57 -24 -114t-30 -116h188v-40q-6 -122 -12 -201.5t-16 -119.5q-19 -77 -56 -106q-39 -30 -120 -30h-114l-27 85q33 -2 61.5 -4t53.5 -2q32 0 54 5.5t34 14.5q25 22 35 79q7 26 10.5 86t9.5 154h-210q43 140 68 269h-220q-12 -291 -62 -425
q-64 -157 -204 -269l-57 74q127 96 181 232q49 119 59 388h-205v83h603z" />
    <glyph glyph-name="cid1291" unicode="&#x4e45;" 
d="M470 251q-80 -101 -177 -174.5t-212 -122.5l-49 84q340 133 524 526h-247q-42 -64 -94.5 -119t-115.5 -105l-57 74q198 148 268 365l94 -11q-11 -31 -23 -60.5t-24 -58.5h299v-72q-59 -142 -133 -253q50 -91 131.5 -162.5t198.5 -126.5l-67 -79q-213 120 -316 295z" />
    <glyph glyph-name="cid1293" unicode="&#x4e48;" 
d="M641 344q111 -159 189 -342l-83 -39q-19 45 -38 87q-112 -21 -251 -35.5t-306 -24.5l-23 84q33 14 73 55q92 101 178.5 223t168.5 266l84 -42q-212 -347 -351 -493q100 8 196.5 18.5t193.5 24.5q-53 103 -111 191zM467 756q-148 -298 -372 -482l-60 71q198 154 339 431z
" />
    <glyph glyph-name="cid1294" unicode="&#x4e49;" 
d="M388 771q80 -94 140 -207l-78 -38q-31 59 -67 111t-74 99zM755 710q-60 -307 -239 -499q143 -113 332 -177l-52 -78q-196 72 -344 194q-76 -64 -164.5 -113.5t-194.5 -84.5l-48 78q199 63 340 181q-84 82 -150.5 179.5t-115.5 216.5l77 45q88 -227 251 -382
q170 178 225 458z" />
    <glyph glyph-name="cid1295" unicode="&#x4e4b;" 
d="M420 774q19 -32 37.5 -70t36.5 -81h275v-65q-152 -289 -439 -441q56 -55 135 -59q62 -4 178 -4q35 0 84 2t110 4l-19 -83h-163q-58 0 -100 0.5t-68 1.5q-146 2 -220 86q-27 29 -45 29q-31 0 -101 -139l-68 48q89 180 171 180q18 0 31 -9q5 -2 7 -3q261 135 403 369h-556
v83h292q-34 73 -80 136z" />
    <glyph glyph-name="cid1296" unicode="&#x4e4c;" 
d="M630 183v-79h-582v79h582zM540 31q30 -1 56.5 -2t52.5 -1q36 0 47 31q5 15 8 66t4 138h-541v418h178q12 25 20 50.5t14 51.5l88 -13q-6 -23 -15.5 -45t-21.5 -44h267q-1 -95 -7.5 -154t-20.5 -84q-26 -50 -126 -50h-49l-23 75q23 -2 45 -3.5t45 -1.5q37 0 46 32
q8 32 8 107h-361v-262h537q-2 -256 -26 -323q-25 -65 -116 -65h-84z" />
    <glyph glyph-name="cid1297" unicode="&#x4e4d;" 
d="M268 568q-70 -125 -162 -219l-57 70q65 64 120.5 152.5t101.5 202.5l86 -18q-12 -28 -23 -54t-23 -53h522v-81h-396v-128h327v-83h-327v-129h352v-80h-352v-193h-84v613h-85z" />
    <glyph glyph-name="cid1298" unicode="&#x4e4e;" 
d="M415 357v268q-71 -6 -146 -9t-157 -3l-25 79q395 0 668 65l43 -74q-130 -34 -299 -51v-275h342v-81h-342v-220q0 -98 -89 -98h-121l-19 82q30 -2 57 -3.5t53 -1.5q35 0 35 42v199h-366v81h366zM750 589q-36 -113 -89 -198l-77 28q47 75 83 193zM230 578q45 -75 79 -161
l-71 -33q-40 97 -86 168z" />
    <glyph glyph-name="cid1299" unicode="&#x4e4f;" 
d="M802 692q-134 -29 -310 -45t-399 -16l-27 78q412 1 693 58zM431 615q15 -26 31 -55t32 -62h256v-76q-153 -201 -414 -323q56 -45 123 -45h116q125 0 266 4l-18 -85h-235q-34 0 -63 0.5t-54 1.5q-93 4 -141 29q-44 21 -70 54q-16 14 -30 14q-31 0 -98 -122l-65 56
q83 164 164 164q20 0 35 -10l2 -1q235 99 374 255h-532v84h294q-16 28 -32.5 54t-35.5 49z" />
    <glyph glyph-name="cid1300" unicode="&#x4e50;" 
d="M83 349q23 104 39 195.5t26 171.5q31 -4 67 -6q306 1 499 60l41 -70q-208 -58 -540 -63q-9 -57 -19 -107.5t-20 -98.5h232v165h85v-165h317v-82h-317v-296q0 -97 -92 -97h-119l-19 82q28 -2 55 -3t54 -1q36 0 36 39v276h-325zM270 258q-33 -78 -71.5 -144.5t-82.5 -124.5
l-73 52q44 54 82 116.5t71 136.5zM675 298q76 -122 149 -272l-80 -39q-34 77 -69 145t-75 131z" />
    <glyph glyph-name="cid1301" unicode="&#x4e52;" 
d="M267 267h267v201h-267v-201zM183 696q149 13 269 30.5t213 43.5l45 -74q-100 -21 -209.5 -38t-233.5 -29v-80h501v-81h-151v-201h215v-81h-523l55 -48q-52 -55 -112.5 -102t-135.5 -87l-53 69q134 70 230 168h-240v81h130v429z" />
    <glyph glyph-name="cid1302" unicode="&#x4e53;" 
d="M274 261h267v199h-267v-199zM189 697q310 23 503 69l43 -74q-203 -38 -461 -61v-89h504v-82h-153v-199h217v-81h-253q66 -43 123 -86t103 -87l-64 -64q-41 44 -98 90.5t-131 97.5l51 49h-525v81h141v436z" />
    <glyph glyph-name="cid1303" unicode="&#x4e54;" 
d="M322 542q17 24 30 49.5t26 50.5q-114 -7 -242 -7l-26 76q181 0 333 15.5t277 44.5l39 -71q-61 -18 -133.5 -30t-154.5 -21q-24 -55 -51 -107h405v-81h-210q75 -92 239 -167l-55 -71q-52 30 -95.5 60t-78.5 62v-394h-83v406h70q-28 26 -49.5 52t-37.5 52h-158
q-22 -28 -44 -53.5t-46 -49.5h75v-64q-7 -140 -58 -223q-52 -77 -167 -120l-44 71q108 40 144 100q36 67 41 172v56q-79 -73 -175 -130l-56 67q133 75 223 174h-200v81h262z" />
    <glyph glyph-name="cid1305" unicode="&#x4e58;" 
d="M644 246q-92 0 -92 97v167h82v-60q43 7 82 17t74 26l26 -70q-39 -15 -84.5 -25t-97.5 -18v-22q0 -41 34 -41h64q7 0 12.5 3t9.5 6q8 12 9 58l79 -25q-8 -81 -31 -96q-22 -17 -63 -17h-104zM401 614v54q-60 -3 -123.5 -4t-131.5 -1l-24 73q350 0 592 37l42 -69
q-58 -11 -125.5 -18.5t-145.5 -14.5v-57h351v-77h-351v-227q140 -148 364 -231l-47 -83q-186 81 -317 215v-260h-84v256q-133 -130 -313 -214l-52 79q240 99 365 234v231h-352v77h352zM329 510v-263h-85v33q-37 -9 -78 -17t-88 -17l-23 76q51 5 99 12.5t90 13.5v49h-166v75
h166v38h85z" />
    <glyph glyph-name="cid1306" unicode="&#x4e59;" 
d="M744 723v-73q-137 -97 -230.5 -168t-148.5 -116q-57 -48 -95 -85t-56 -67q-34 -53 -34 -85q0 -23 19 -43q23 -18 101 -18h348q61 2 85 37q25 35 25 162l83 -25q0 -156 -39 -205q-40 -49 -128 -49h-392q-106 0 -148 34q-46 42 -46 107q0 45 37 105q40 67 166 172
q114 97 302 236h-482v81h633z" />
    <glyph glyph-name="cid1308" unicode="&#x4e5d;" 
d="M399 769v-184h260v-495q0 -42 44 -42h29q29 0 38 42q3 29 4 60.5t1 63.5l79 -23q-6 -65 -10.5 -103t-9.5 -53q-16 -69 -101 -69h-42q-119 0 -119 111v424h-176q-12 -207 -76 -335q-72 -135 -232 -207l-48 78q156 75 213 193q49 112 59 271h-218v84h220v184h85z" />
    <glyph glyph-name="cid1309" unicode="&#x4e5e;" 
d="M309 760q-9 -23 -17.5 -43.5t-17.5 -39.5h513v-81h-556q-27 -49 -56.5 -89.5t-63.5 -76.5l-54 66q100 103 172 283zM697 496v-79q-316 -193 -409 -292q-29 -34 -36 -56q0 -21 24 -21h352q48 0 74 17q27 18 44 155l79 -31q-18 -155 -63 -186q-44 -33 -126 -33h-357
q-118 0 -118 84q0 53 75 130q49 50 131 107.5t197 125.5h-361v79h494z" />
    <glyph glyph-name="cid1310" unicode="&#x4e5f;" 
d="M502 774v-200l266 59q0 -147 -4.5 -234t-9.5 -120q-14 -73 -122 -73h-39l-23 76q23 -1 41.5 -1h36.5q27 0 34 47q2 14 3 63.5t2 136.5l-185 -41v-320h-82v304l-170 -37v-314q0 -59 59 -59h381q43 0 65 19q20 18 26 127l77 -27q-10 -139 -40 -170q-32 -29 -115 -29h-415
q-121 0 -121 128v307l-134 -27v81l134 29v205h83v-186l170 37v219h82z" />
    <glyph glyph-name="cid1311" unicode="&#x4e60;" 
d="M587 289q-93 -59 -208.5 -111t-254.5 -96l-35 77q139 42 258 93t219 114zM227 567q53 -39 97 -78.5t80 -80.5l-58 -58q-32 39 -76 78.5t-103 81.5zM454 38q37 0 74.5 -0.5t75.5 -0.5q34 0 51 32q19 35 22 165q2 45 3.5 146.5t3.5 261.5h-572v81h656q-10 -459 -14 -547
q-4 -123 -33 -170q-26 -45 -101 -45q-56 -1 -143 -3z" />
    <glyph glyph-name="cid1312" unicode="&#x4e61;" 
d="M782 422q-28 -194 -176 -313q-128 -106 -454 -166l-37 84q294 49 423 140q41 30 72 69q-85 -13 -189.5 -21.5t-229.5 -18.5l-27 74q63 30 126.5 76.5t129.5 107.5q-131 -14 -263 -20l-21 73q149 117 259 273l83 -32q-94 -133 -219 -237q59 3 118 7t118 10q61 63 125 138
l82 -40q-104 -119 -196 -204.5t-174 -140.5q94 7 175.5 15t152.5 18q26 55 37 116z" />
    <glyph glyph-name="cid1313" unicode="&#x4e66;" 
d="M437 774v-148h261v-40l-18 -197h124q-1 -266 -45 -312q-8 -9 -21 -16t-32 -11q-16 -3 -33 -5.5t-32 -2.5h-57l-22 79q25 0 47.5 -0.5t45.5 -0.5q33 3 48 20q16 21 19 166h-285v-355h-84v355h-306v83h306v157h-255v80h255v148h84zM598 389l16 157h-177v-157h161zM657 772
q50 -23 93.5 -51t83.5 -60l-44 -69q-83 73 -175 117z" />
    <glyph glyph-name="cid1315" unicode="&#x4e70;" 
d="M141 495q102 -42 183 -98l-42 -66q-88 66 -180 104zM222 614q52 -18 98 -41.5t90 -50.5l-44 -66q-89 63 -184 100zM536 606v-188q-1 -33 -5.5 -62.5t-9.5 -55.5h320v-81h-348q-4 -9 -8.5 -17t-8.5 -16q96 -41 182 -84t165 -90l-58 -64q-82 50 -164 94t-167 83
q-2 -3 -2.5 -4.5t-4.5 -3.5q-94 -104 -315 -162l-46 75q110 29 185 65t115 79q18 21 31 45h-337v81h373q8 27 12.5 56t7.5 62v188h83zM778 724v-53q-10 -38 -22.5 -77t-29.5 -78l-77 22q12 24 22.5 51.5t19.5 56.5h-598v78h685z" />
    <glyph glyph-name="cid1316" unicode="&#x4e71;" 
d="M222 527v116q-35 -2 -71 -4t-73 -2l-24 75q109 0 200 11.5t166 33.5l40 -70q-68 -23 -152 -34v-126h172v-81h-172v-130h145v-350h-84v39h-208v-39h-83v350h144v130h-180v81h180zM369 85v153h-208v-153h208zM614 -33q-92 0 -92 100v691h84v-673q0 -40 34 -40h84
q22 0 34 20q6 14 9.5 48.5t7.5 93.5l80 -27q-11 -154 -37 -185q-27 -28 -78 -28h-126z" />
    <glyph glyph-name="cid1317" unicode="&#x4e73;" 
d="M616 -33q-82 0 -82 102v689h82v-671q0 -42 25 -42h85q22 0 32 20q13 26 17 141l81 -26q-10 -155 -38 -185q-26 -28 -75 -28h-127zM479 193q-36 -9 -74 -17.5t-75 -14.5v-120q0 -82 -88 -82h-95l-23 79q26 -2 48 -3t38 -1q34 0 34 31v79q-48 -7 -98.5 -14.5t-103.5 -13.5
l-11 81q57 7 109.5 14t103.5 15v91q18 13 40.5 29.5t51.5 36.5h-266v77h387v-61q-27 -25 -59.5 -50.5t-67.5 -55.5v-51q39 7 76.5 15t72.5 17v-81zM491 646q-25 -93 -68 -166l-70 26q35 61 62 162zM270 643q28 -67 44 -123l-71 -26q-8 33 -20.5 65t-24.5 66zM114 634
q14 -30 26.5 -63t22.5 -70l-73 -18q-10 33 -22 64.5t-26 61.5zM492 701q-164 -42 -435 -42l-23 69q125 0 229 9.5t190 29.5z" />
    <glyph glyph-name="cid1318" unicode="&#x4e7e;" 
d="M196 693v77h84v-77h152v-76h-152v-60h131v-333h-131v-62h155v-76h-155v-135h-84v135h-162v76h162v62h-127v333h127v60h-148v76h148zM332 358h-184v-64h184v64zM332 426v61h-184v-61h184zM540 581q-16 -29 -32 -53.5t-33 -47.5l-55 65q65 82 114 226l76 -16
q-7 -26 -15 -49t-18 -46h262v-79h-299zM794 468v-75q-51 -55 -90.5 -100.5t-65.5 -79.5q-54 -66 -72 -98q-9 -17 -13 -28t-4 -19q0 -27 33 -27h138q22 0 36 21q5 11 9 45.5t6 92.5l75 -26q-11 -147 -38 -178q-30 -29 -88 -29h-155q-106 0 -106 85q0 15 5.5 30.5t14.5 33.5
q12 19 32.5 49.5t50.5 71.5q48 66 122 151h-212v80h322z" />
    <glyph glyph-name="cid15042" unicode="&#x4e82;" 
d="M272 358q-8 -14 -14.5 -27t-14.5 -25q22 4 42 6.5t38 4.5q-9 15 -16 28l41 13h-76zM346 276q-30 -6 -74 -11t-102 -11l-9 49q18 3 30 22q3 7 8 15t10 18h-68v-402h-75v472h143q-15 10 -30 20.5t-30 21.5l35 34h-104v60h29q-15 34 -37 65l64 23q13 -19 23.5 -41t20.5 -47
h64q-15 46 -34 81l72 12q8 -21 16 -44t15 -49h47q16 26 30 52.5t26 53.5l64 -22q-19 -45 -47 -84h61v-54q-23 -23 -49 -42.5t-54 -39.5h112v-372q0 -96 -78 -96h-81l-22 75l19 -1l-40 31q-23 -17 -49 -32t-56 -27l-38 51q26 8 48.5 20.5t42.5 25.5q-18 11 -35.5 21.5
t-37.5 23.5l36 32h-42v52h226v-43q-18 -47 -53 -84q16 -12 30 -22t27 -21l-31 -30l32 -2q26 0 26 42v286h-69q15 -20 27.5 -42t23.5 -46l-49 -22q-3 8 -6.5 14.5t-7.5 13.5zM293 440q24 14 48 29.5t50 34.5h-188q26 -17 48.5 -32.5t41.5 -31.5zM290 138q22 24 34 42h-106
q20 -10 38 -20.5t34 -21.5zM500 705q-164 -44 -431 -44l-23 67q125 0 228.5 9.5t189.5 29.5zM645 -34q-91 0 -91 98v696h87v-680q0 -38 27 -38h66q13 0 23 17q11 18 14 150l83 -26q-12 -157 -32 -188q-24 -28 -64 -29h-113z" />
    <glyph glyph-name="cid1319" unicode="&#x4e86;" 
d="M415 476q65 38 126 79.5t119 88.5h-567v82h683v-82q-63 -56 -131.5 -108t-145.5 -102v-381q0 -94 -91 -94q-42 0 -77.5 1.5t-65.5 4.5l-23 81q34 -4 68.5 -6t74.5 -2q30 0 30 31v407z" />
    <glyph glyph-name="cid1320" unicode="&#x4e88;" 
d="M314 634q41 -26 76 -52.5t68 -52.5q38 28 73 61.5t68 70.5h-445v81h553v-67q-87 -117 -191 -196q3 -3 6.5 -6t6.5 -7h282v-73q-65 -101 -156 -180l-66 59q30 23 59.5 50.5t60.5 61.5h-216v-334q0 -94 -88 -94h-128l-19 82q30 -2 59.5 -3t58.5 -1q33 0 33 37v313h-339v82
h345q-33 28 -72.5 55.5t-84.5 56.5z" />
    <glyph glyph-name="cid1321" unicode="&#x4e89;" 
d="M471 152v-88q0 -105 -103 -105h-125l-16 81q29 -2 56.5 -4t55.5 -2q49 0 49 51v67h-230v82h230v82h-338v78h338v80h-215v53q-15 -13 -30 -23.5t-30 -21.5l-53 63q132 85 224 231l84 -17q-20 -31 -37 -58h326v-65q-26 -23 -51 -43t-52 -39h176v-160h108v-78h-108v-164
h-259zM434 554q25 16 50.5 33t51.5 38h-262q-18 -19 -35 -37t-35 -34h230zM471 394h175v80h-175v-80zM471 234h175v82h-175v-82z" />
    <glyph glyph-name="cid1322" unicode="&#x4e8b;" 
d="M401 611v45h-341v72h341v45h84v-45h341v-72h-341v-45h262v-183h-262v-44h274v-116h90v-69h-90v-115h-274v-46q0 -82 -88 -82h-109l-18 80q26 -2 50 -4t48 -2q33 0 33 28v26h-285v67h285v48h-364v69h364v50h-283v66h283v44h-262v183h262zM664 550h-179v-58h179v58z
M401 550h-177v-58h177v58zM485 268h194v50h-194v-50zM485 199v-48h194v48h-194z" />
    <glyph glyph-name="cid1323" unicode="&#x4e8c;" 
d="M126 680h635v-82h-635v82zM45 121h796v-83h-796v83z" />
    <glyph glyph-name="cid1325" unicode="&#x4e8e;" 
d="M776 742v-83h-283v-216h344v-85h-344v-301q0 -95 -97 -95h-142l-17 81q33 -2 65.5 -3t63.5 -1q43 0 43 38v281h-360v85h360v216h-305v83h672z" />
    <glyph glyph-name="cid1326" unicode="&#x4e8f;" 
d="M754 728v-80h-620v80h620zM833 530v-81h-497l-40 -112h430q-15 -267 -55 -322q-42 -53 -172 -53q-42 0 -101 4l-22 77q67 -6 123 -6q73 0 100 28q24 28 39 195h-449l62 189h-198v81h780z" />
    <glyph glyph-name="cid1327" unicode="&#x4e91;" 
d="M766 726v-82h-637v82h637zM846 481v-85h-422q-57 -115 -107 -196t-92 -131q218 14 434 45q-21 37 -44 76.5t-50 79.5l67 42q63 -91 109 -169t80 -145l-76 -51q-11 22 -22 44.5t-23 45.5q-268 -37 -579 -58l-23 85q14 4 20 8q80 60 213 324h-286v85h801z" />
    <glyph glyph-name="cid1328" unicode="&#x4e92;" 
d="M63 739h759v-82h-460l-32 -126h379l-68 -467h202v-82h-797v82h512l21 132h-418l117 461h-215v82zM592 275l28 177h-311l-45 -177h328z" />
    <glyph glyph-name="cid1330" unicode="&#x4e94;" 
d="M126 450h196l42 194h-283v82h726v-82h-359l-40 -194h294v-381h139v-82h-794v82h195l64 300h-180v81zM328 69h289v300h-227z" />
    <glyph glyph-name="cid1331" unicode="&#x4e95;" 
d="M251 609v158h84v-158h217v159h86v-159h167v-82h-167v-194h206v-81h-206v-294h-86v294h-235q-14 -69 -38 -124q-50 -111 -160 -168l-50 80q103 58 140 149q11 32 20 63h-186v81h199q2 26 5 52t4 53v89h-170v82h170zM335 438q-1 -28 -2 -54t-3 -51h222v194h-217v-89z" />
    <glyph glyph-name="cid1333" unicode="&#x4e9a;" 
d="M810 723v-80h-231v-574h259v-82h-790v82h258v574h-229v80h733zM496 69v574h-108v-574h108zM792 512q-46 -199 -116 -351l-73 27q64 134 115 344zM163 524q65 -147 113 -337l-73 -20q-23 86 -51 169t-63 163z" />
    <glyph glyph-name="cid1334" unicode="&#x4e9b;" 
d="M336 767v-142h123v-79h-123v-142q33 6 65 12.5t63 12.5v-80q-96 -19 -197.5 -35.5t-210.5 -32.5l-20 82q17 3 34 4t33 3v310h81v-300q19 2 36.5 5t34.5 5v377h81zM830 632q-55 -29 -117.5 -52.5t-135.5 -42.5v-117q0 -40 27 -40h103q23 0 38 15q12 15 18 97l78 -28
q-13 -118 -39 -141q-24 -21 -79 -21h-146q-82 0 -82 100v365h82v-152q56 17 106.5 38.5t96.5 46.5zM734 236v-80h-583v80h583zM833 65v-82h-779v82h779z" />
    <glyph glyph-name="cid15054" unicode="&#x4e9e;" 
d="M61 740h764v-80h-233v-132h192v-317h-193v-146h247v-82h-789v82h247v146h-192v318h193v131h-236v80zM506 65v227h193v156h-193v212h-126v-212h-193v-157h193v-226h126z" />
    <glyph glyph-name="cid1335" unicode="&#x4e9f;" 
d="M330 533v-311h-242v311h242zM253 458h-88v-160h88v160zM838 63v-80h-789v80h789zM569 437q25 -19 49.5 -39t47.5 -40q34 53 55 114h-183v74h267v-61q-27 -105 -77 -183q58 -54 106 -106l-60 -62q-20 27 -44 52.5t-51 51.5q-26 -29 -55.5 -55t-63.5 -48l-55 69
q67 42 113 93q-24 23 -50.5 44.5t-53.5 43.5zM711 740v-79q-51 -31 -108 -62.5t-121 -61.5v-353q0 -87 -85 -87h-100l-20 79q20 -1 42.5 -1.5t48.5 -0.5q30 0 30 37v369q61 26 107 45.5t79 35.5h-428v79h555z" />
    <glyph glyph-name="cid1337" unicode="&#x4ea1;" 
d="M418 623q-17 31 -36 59t-42 54l82 31q46 -58 86 -144h329v-84h-591v-469h555v-83h-642v552h-111v84h370z" />
    <glyph glyph-name="cid1339" unicode="&#x4ea4;" 
d="M400 671q-11 25 -23 48t-24 42l93 17q13 -23 24.5 -49.5t23.5 -57.5h344v-80h-789v80h351zM589 581q75 -58 136 -114.5t112 -113.5l-61 -63q-44 55 -105 113t-139 123zM660 379q-60 -113 -147 -204q139 -94 337 -144l-52 -79q-104 30 -191.5 70.5t-159.5 95.5
q-146 -114 -354 -169l-51 78q200 50 337 148q-46 43 -83.5 90t-67.5 102l73 41q54 -103 143 -179q44 40 78 86.5t60 98.5zM353 527q-101 -133 -251 -232l-55 72q74 45 134 98.5t109 114.5z" />
    <glyph glyph-name="cid1340" unicode="&#x4ea5;" 
d="M560 143q-175 -133 -432 -192l-50 76q448 98 618 392l78 -35q-65 -106 -152 -188q114 -88 203 -181l-66 -65q-73 90 -199 193zM668 533q-166 -301 -549 -395l-51 75q195 45 330 140q-58 -6 -119 -11t-125 -9l-20 79q15 6 18 8q60 36 156 182h-256v81h349
q-10 22 -20.5 41.5t-21.5 36.5l95 17q11 -22 21 -45t19 -50h342v-81h-432q-41 -63 -77.5 -109.5t-67.5 -77.5q60 4 118.5 9t116.5 12q57 58 98 130z" />
    <glyph glyph-name="cid1341" unicode="&#x4ea6;" 
d="M233 470q-21 -98 -51.5 -179t-70.5 -151l-76 48q81 140 116 298zM718 492q36 -76 69.5 -156.5t61.5 -165.5l-81 -36q-30 94 -62.5 176t-69.5 153zM447 769q12 -23 22 -49.5t21 -55.5h338v-83h-237v-520q0 -102 -99 -102h-96l-18 81q22 -2 43.5 -3.5t42.5 -1.5q42 0 42 47
v499h-120v-125q-4 -346 -210 -504l-63 55q187 141 189 449v125h-242v83h339q-21 50 -44 92z" />
    <glyph glyph-name="cid1342" unicode="&#x4ea7;" 
d="M456 782q9 -22 17.5 -46t17.5 -50h308v-80h-149q-14 -59 -36 -116h204v-82h-631v-119q-5 -210 -94 -334l-64 56q71 99 74 278v201h179l-31 116h-158v80h312q-9 23 -19 42.5t-20 38.5zM532 490q24 54 38 116h-237l32 -116h167z" />
    <glyph glyph-name="cid1343" unicode="&#x4ea8;" 
d="M722 575v-196h-559v196h559zM641 505h-397v-56h397v56zM454 778q8 -18 15.5 -37.5t14.5 -40.5h346v-78h-773v78h339q-9 17 -18 32t-18 31zM582 249h-482v76h663v-59q-57 -26 -123.5 -53t-143.5 -58v-114q0 -85 -84 -85h-123l-24 78q72 -4 114 -4q35 0 35 35v123z" />
    <glyph glyph-name="cid1344" unicode="&#x4ea9;" 
d="M766 -49h-81v45h-479v-45h-82v558h642v-558zM404 76v138h-198v-138h198zM685 76v138h-198v-138h198zM404 291v140h-198v-140h198zM487 291h198v140h-198v-140zM407 669q-19 41 -44 78l80 31q26 -46 50 -109h344v-81h-788v81h358z" />
    <glyph glyph-name="cid1345" unicode="&#x4eab;" 
d="M719 586v-192h-549v192h549zM636 515h-385v-49h385v49zM445 772q9 -15 17.5 -32t17.5 -36h351v-79h-775v79h329q-18 29 -38 54zM418 187v25l166 67h-461v75h631v-60q-110 -48 -254 -103v-4h350v-77h-350v-65q0 -93 -89 -93h-124l-22 77q36 -2 63.5 -4.5t47.5 -2.5
q42 0 42 47v41h-382v77h382z" />
    <glyph glyph-name="cid1346" unicode="&#x4eac;" 
d="M735 537v-268h-246v-223q0 -87 -90 -87h-96l-19 81q23 -2 43.5 -3.5t41.5 -1.5q36 0 36 33v201h-253v268h583zM652 456h-417v-107h417v107zM445 773q9 -18 17.5 -41.5t17.5 -49.5h358v-79h-790v79h345q-7 22 -16.5 41t-18.5 36zM644 226q118 -96 197 -192l-61 -61
q-68 91 -191 199zM298 173q-82 -115 -202 -203l-53 69q58 41 107 87t89 100z" />
    <glyph glyph-name="cid1347" unicode="&#x4ead;" 
d="M703 243v-69h-215v-128q0 -88 -93 -88h-89l-20 78q22 -2 41.5 -4t39.5 -2q35 0 35 35v109h-220v69h521zM399 701q-12 32 -31 62l89 15q7 -18 13 -37t13 -40h335v-72h-749v72h330zM705 587v-177h-523v177h523zM620 522h-355v-47h355v47zM820 200h-85v94h-584v-95h-83v166
h752v-165z" />
    <glyph glyph-name="cid1348" unicode="&#x4eae;" 
d="M618 246v-186q0 -26 31 -26h72q15 0 24 7q8 7 18 100l75 -24q-10 -96 -28 -126q-20 -30 -76 -30h-106q-93 0 -93 84v129h-183v-10q-6 -175 -256 -216l-47 69q219 31 219 158v71h350zM399 706q-17 31 -41 60l92 14q10 -17 19.5 -35t19.5 -39h336v-73h-764v73h338zM696 590
v-182h-505v182h505zM614 523h-340v-48h340v48zM810 200h-84v94h-567v-97h-83v170h734v-167z" />
    <glyph glyph-name="cid1349" unicode="&#x4eb2;" 
d="M586 208q69 -34 131.5 -72.5t120.5 -85.5l-44 -71q-120 104 -249 165zM337 148q-106 -100 -258 -165l-35 75q147 58 242 150zM459 774q9 -18 16.5 -41t15.5 -49h284v-77h-662v77h291q-8 21 -16.5 40.5t-18.5 36.5zM265 471q-11 24 -23 47t-27 46l79 28q16 -25 30.5 -55
t27.5 -66h196q15 29 27.5 59.5t24.5 61.5l80 -28q-9 -26 -20.5 -48.5t-25.5 -44.5h182v-80h-325v-83h297v-76h-297v-182q0 -98 -95 -98h-101l-17 82q23 -3 44.5 -4.5t43.5 -1.5q41 0 41 42v162h-308v76h308v83h-336v80h194z" />
    <glyph glyph-name="cid1350" unicode="&#x4eb3;" 
d="M810 131l-346 -27v-46q0 -26 28 -26h247q20 0 32 9q14 11 17 62l69 -22q-10 -83 -34 -100q-24 -14 -70 -14h-282q-90 0 -90 73v56l-308 -24l-12 69l320 25v54q-42 -2 -83.5 -4t-84.5 -4l-22 63q285 12 463 45l37 -64q-55 -9 -111.5 -16t-115.5 -14v-54l336 27zM396 712
q-7 15 -14.5 26.5t-15.5 24.5l94 17q8 -15 15 -31.5t14 -36.5h334v-68h-759v68h332zM717 607v-162h-534v162h534zM636 546h-373v-40h373v40zM818 243h-83v100h-584v-117h-82v184h749v-167z" />
    <glyph glyph-name="cid1351" unicode="&#x4eb5;" 
d="M397 717q-7 14 -14 26t-15 22l82 14q9 -14 16 -29.5t13 -32.5h360v-73h-792v73h350zM209 575v51h78v-51h105v-72h-105v-58q48 7 93 16v-67q-23 -4 -46.5 -9t-46.5 -8v-62q0 -80 -83 -80h-86l-17 71q20 -2 38.5 -3t37.5 -1q32 0 32 31v32q-32 -6 -64 -10t-65 -8l-19 70
q39 3 75.5 7t72.5 9v70h-136v72h136zM433 468q19 -7 37 -14t35 -16q7 16 9.5 31.5t3.5 33.5h-95v72h98v52h77v-52h148v-164q2 -89 20 -89q15 0 28 84l60 -30q-11 -72 -32 -104q-23 -26 -57 -26q-37 0 -62 33q-25 34 -25 132v92h-81q-3 -53 -21 -98q24 -12 46.5 -24t45.5 -27
l-40 -62q-45 29 -86 52q-43 -58 -111 -95l-59 52q33 16 57 35t42 42q-40 19 -78 30zM430 230q-32 -26 -61.5 -47t-60.5 -39v-98q47 11 90.5 23.5t84.5 25.5l13 -69q-58 -19 -128.5 -36t-152.5 -34l-16 62q34 12 34 36v51q-31 -14 -70.5 -28.5t-86.5 -30.5l-43 70
q51 13 99 29.5t94 38.5q36 17 71 38t68 47zM757 216q-15 -19 -31.5 -34.5t-31.5 -27.5q-10 -7 -21 -14t-24 -15q86 -63 207 -95l-47 -70q-247 76 -351 276l64 36q16 -28 33 -52.5t40 -47.5q12 5 23.5 13t22.5 15q27 23 53 55z" />
    <glyph glyph-name="cid1352" unicode="&#x4eba;" 
d="M483 769q0 -58 -2 -108t-4 -91q76 -352 381 -540l-56 -73q-254 169 -356 455q-87 -275 -367 -457l-52 75q360 218 370 600q0 45 0.5 79t0.5 60h85z" />
    <glyph glyph-name="cid1354" unicode="&#x4ebf;" 
d="M137 425q-38 -48 -84 -95l-28 87q139 156 205 361l79 -39q-18 -50 -38.5 -97.5t-46.5 -91.5v-599h-87v474zM794 692v-73q-94 -92 -159 -160t-101 -112q-41 -44 -66.5 -80.5t-37.5 -65.5q-25 -50 -25 -81q0 -25 13 -40q14 -20 59 -20h233q36 1 52 30q6 16 10 49.5t4 86.5
l81 -24q0 -135 -29 -180q-28 -42 -93 -42h-273q-76 0 -108 34q-34 42 -34 106q0 23 6.5 48t18.5 53q30 66 119 164q37 46 88 102.5t116 122.5h-331v82h457z" />
    <glyph glyph-name="cid1355" unicode="&#x4ec0;" 
d="M146 434q-22 -29 -45 -55t-48 -53l-28 89q136 155 204 361l79 -37q-31 -93 -79 -179v-609h-83v483zM604 770v-284h244v-83h-244v-451h-87v451h-228v83h228v284h87z" />
    <glyph glyph-name="cid1356" unicode="&#x4ec1;" 
d="M800 634v-81h-474v81h474zM848 120v-80h-571v80h571zM138 425q-19 -25 -40 -49.5t-44 -47.5l-27 88q137 156 201 362l79 -39q-17 -49 -37 -95t-46 -91v-597h-86v469z" />
    <glyph glyph-name="cid1360" unicode="&#x4ec5;" 
d="M295 740q-29 -91 -75 -178v-611h-85v475q-20 -25 -39.5 -49t-41.5 -47l-28 88q128 154 190 361zM800 -49q-133 92 -220 199q-97 -120 -240 -201l-58 69q144 78 244 202q-133 187 -156 420h-49v81h469v-76q-43 -252 -162 -429q94 -110 229 -198zM574 289q93 149 129 351
h-253q10 -98 40.5 -185t83.5 -166z" />
    <glyph glyph-name="cid1362" unicode="&#x4ec7;" 
d="M307 732q-17 -51 -39 -98.5t-49 -92.5v-587h-83v466q-20 -24 -40 -47t-43 -46l-27 87q138 151 204 353zM498 762v-176h201v-503q0 -42 33 -42h13q18 0 21 32q4 26 6.5 56t2.5 59l79 -24q-6 -58 -11.5 -93.5t-10.5 -48.5q-14 -59 -86 -59h-26q-103 0 -103 106v435h-121
q-7 -372 -183 -548l-65 58q161 156 167 490h-117v82h118v176h82z" />
    <glyph glyph-name="cid1364" unicode="&#x4eca;" 
d="M370 549q113 -48 207 -118l-43 -71q-104 78 -210 121zM759 342v-66q-81 -213 -344 -325l-57 74q216 85 302 238h-533v79h632zM475 771q82 -92 178.5 -163t205.5 -125l-45 -79q-218 110 -370 288q-143 -168 -371 -289l-43 80q116 58 211 130.5t173 157.5h61z" />
    <glyph glyph-name="cid1365" unicode="&#x4ecb;" 
d="M631 472v-513h-84v513h84zM333 470v-165q-3 -242 -156 -356l-63 56q134 92 137 300v165h82zM473 767q160 -187 376 -295l-41 -76q-215 112 -365 291q-135 -171 -362 -298l-43 74q114 63 206.5 138t168.5 166h60z" />
    <glyph glyph-name="cid1366" unicode="&#x4ecd;" 
d="M295 655v82h439v-41q-9 -61 -20 -121.5t-26 -122.5h142v-36q-4 -122 -9.5 -201.5t-10.5 -118.5q-16 -79 -44 -106q-30 -29 -94 -29h-103l-27 81q30 -2 56.5 -3t49.5 -1q21 0 36.5 5t24.5 15q16 21 24 77q7 54 14 244h-158q18 72 32.5 140t24.5 136h-159v-152
q-7 -373 -189 -544l-68 60q169 152 172 484v152h-107zM280 743q-14 -43 -29.5 -86t-35.5 -83v-623h-82v480q-19 -26 -39 -51t-41 -50l-28 89q121 154 180 360z" />
    <glyph glyph-name="cid1367" unicode="&#x4ece;" 
d="M303 765q0 -204 -20 -357q50 -53 92.5 -105t76.5 -104l-64 -65q-48 85 -122 177q-42 -212 -181 -352l-59 71q124 131 161 320q29 159 31 415h85zM650 766q0 -68 -2.5 -128.5t-6.5 -116.5q59 -309 218 -489l-61 -73q-60 76 -106 167t-77 199q-43 -222 -193 -370l-58 71
q130 131 170 323q15 80 23 184t8 233h85z" />
    <glyph glyph-name="cid1368" unicode="&#x4ed1;" 
d="M475 767q166 -210 382 -329l-45 -78q-218 128 -369 331q-45 -65 -100 -122.5t-119 -109.5h65v-177q99 23 192 56t183 77l50 -70q-224 -96 -425 -141v-82q0 -77 64 -77h240q32 0 57 16q26 19 37 146l81 -27q-20 -158 -54 -184t-100 -29h-283q-124 0 -124 142v339
q-66 -52 -131 -93l-44 80q229 132 380 332h63z" />
    <glyph glyph-name="cid1369" unicode="&#x4ed3;" 
d="M473 767q167 -193 380 -301l-43 -75q-215 115 -367 299q-142 -176 -370 -301l-41 74q115 63 210 138t171 166h60zM297 381v-287q0 -49 47 -49h249q75 0 94 25q18 27 27 112l80 -27q-17 -136 -49 -163q-35 -25 -127 -25h-311q-94 0 -94 97v395h455v-212q-2 -90 -84 -95
q-33 0 -64 1.5t-61 2.5l-22 79q33 -2 61.5 -3.5t52.5 -1.5q32 0 32 47v104h-286z" />
    <glyph glyph-name="cid1370" unicode="&#x4ed4;" 
d="M539 404v120q40 30 78.5 65.5t76.5 76.5h-340v76h436v-76q-37 -46 -78 -89t-89 -83v-90h232v-82h-232v-264q0 -103 -98 -103h-99l-21 79q39 -4 86 -4q48 0 48 54v238h-255v82h255zM136 423q-40 -49 -82 -93l-28 90q72 77 122.5 166t83.5 193l78 -39q-35 -107 -91 -198
v-590h-83v471z" />
    <glyph glyph-name="cid1371" unicode="&#x4ed5;" 
d="M309 735q-18 -51 -39.5 -99t-50.5 -94v-591h-83v472q-20 -24 -40 -47t-43 -46l-28 87q140 155 205 355zM514 519v252h84v-252h250v-83h-250v-371h216v-82h-513v82h213v371h-249v83h249z" />
    <glyph glyph-name="cid1372" unicode="&#x4ed6;" 
d="M294 743q-31 -97 -79 -187v-605h-82v475q-19 -25 -39 -49t-41 -47l-28 86q131 156 192 363zM424 -31q-106 0 -106 111v332l-72 -22v85l72 24v190h84v-163l112 34v211h83v-185l193 62q0 -294 -13 -356q-14 -60 -116 -60h-10l-25 81q15 -1 28 -1.5t25 -0.5q19 0 22 29
q2 13 3 61t2 131l-109 -33v-351h-83v325l-112 -35v-347q0 -41 43 -41h266q29 0 44 18q6 9 9.5 40.5t5.5 86.5l80 -28q-8 -136 -32 -169q-28 -29 -93 -29h-301z" />
    <glyph glyph-name="cid1374" unicode="&#x4ed8;" 
d="M306 742q-30 -92 -76 -176v-615h-83v485q-22 -28 -45 -55t-49 -54l-27 89q136 156 201 363zM641 586v181h83v-181h123v-82h-123v-450q0 -97 -93 -97h-132l-19 82q32 -2 62 -3.5t60 -1.5q39 0 39 40v430h-325v82h325zM408 420q96 -116 150 -202l-71 -51q-55 97 -150 211z
" />
    <glyph glyph-name="cid1375" unicode="&#x4ed9;" 
d="M309 743q-18 -53 -39 -102.5t-51 -95.5v-594h-83v473q-20 -24 -40 -47.5t-42 -46.5l-28 90q138 153 205 360zM617 767v-679h117v519h87v-650h-87v49h-327v-49h-85v649h85v-518h125v679h85z" />
    <glyph glyph-name="cid1380" unicode="&#x4ee3;" 
d="M822 487l-286 -37q4 -36 8 -68t9 -58q31 -139 83 -212q48 -70 92 -72q31 2 47 161l74 -41q-10 -55 -22.5 -95.5t-26.5 -68.5q-26 -40 -68 -41q-67 0 -137 85q-78 93 -117 244q-8 31 -14 69.5t-11 84.5l-185 -24l-13 80l191 25q-8 111 -10 253h86q0 -68 1.5 -128t5.5 -114
l280 37zM139 424q-20 -24 -41 -48.5t-44 -47.5l-27 88q138 154 203 358l79 -36q-18 -50 -38 -97t-46 -90v-600h-86v473zM617 769q39 -33 72.5 -66.5t61.5 -66.5l-57 -56q-23 32 -56 66t-76 70z" />
    <glyph glyph-name="cid1381" unicode="&#x4ee4;" 
d="M376 562q49 -21 94 -44.5t84 -54.5l-41 -66q-89 65 -179 102zM290 209q46 -16 88.5 -35t83.5 -39q85 65 167 155h-490v80h595v-72q-42 -56 -90.5 -106.5t-105.5 -95.5q31 -15 59.5 -32t56.5 -36l-47 -73q-176 117 -364 185zM471 763q83 -92 179 -162t204 -121l-42 -76
q-109 54 -200 124.5t-169 155.5q-136 -168 -366 -292l-43 76q228 117 381 295h56z" />
    <glyph glyph-name="cid1382" unicode="&#x4ee5;" 
d="M346 679q118 -144 178 -248l-72 -48q-64 113 -176 251zM641 221q-87 -152 -272 -260l-56 70q221 130 291 319q26 81 39 184t16 232h87q0 -128 -14 -234.5t-42 -194.5l-11 -34q52 -67 96.5 -133t80.5 -133l-66 -65q-55 115 -149 249zM80 122q27 25 27 63v567h87v-587
q97 41 191 98l24 -83q-143 -81 -300 -138z" />
    <glyph glyph-name="cid1384" unicode="&#x4eea;" 
d="M308 740q-34 -102 -89 -194v-595h-83v473q-20 -24 -39.5 -47.5t-41.5 -46.5l-28 90q137 155 202 359zM496 774q41 -54 70.5 -102.5t51.5 -90.5l-69 -47q-44 85 -116 194zM797 712q-45 -318 -181 -512q104 -109 242 -174l-50 -76q-139 68 -246 183q-102 -117 -249 -183
l-48 76q143 62 238 175q-65 86 -116 186t-89 222l74 43q33 -115 78 -209.5t106 -172.5q121 181 158 458z" />
    <glyph glyph-name="cid1386" unicode="&#x4eec;" 
d="M641 -41l-21 79l83 -1q36 0 36 45v558h-205v80h288v-662q0 -99 -100 -99h-81zM420 770q29 -37 52.5 -70.5t40.5 -63.5l-67 -46q-34 64 -89 142zM309 743q-18 -53 -39 -102t-51 -96v-594h-83v472q-37 -49 -82 -93l-27 86q137 151 205 363zM392 620v-666h-83v666h83z" />
    <glyph glyph-name="cid1387" unicode="&#x4ef0;" 
d="M272 143q23 11 23 44v505q112 31 177 74l49 -68q-54 -33 -148 -62v-461q68 23 126 48l15 -79q-48 -18 -102.5 -36t-117.5 -38zM130 435q-17 -27 -36.5 -52.5t-38.5 -51.5l-28 91q110 150 162 354l76 -36q-22 -81 -57 -161v-623h-78v479zM668 62l-20 82l55 -4q32 0 32 40
v456h-114v-680h-80v759h273v-552q0 -101 -83 -101h-63z" />
    <glyph glyph-name="cid1388" unicode="&#x4ef2;" 
d="M300 742q-34 -105 -84 -192v-599h-82v473q-20 -23 -40 -47t-41 -47l-28 90q134 153 195 359zM600 767v-150h221v-413h-83v40h-138v-292h-85v292h-135v-40h-83v413h218v150h85zM515 322v216h-135v-216h135zM738 322v216h-138v-216h138z" />
    <glyph glyph-name="cid1391" unicode="&#x4ef6;" 
d="M301 742q-34 -106 -86 -200v-590h-83v468q-34 -46 -79 -90l-28 89q133 154 199 360zM454 704q-6 -29 -11.5 -59t-12.5 -56h106v178h84v-178h195v-82h-195v-190h229v-82h-229v-279h-84v279h-252v82h252v190h-135q-15 -43 -36 -80t-44 -72l-55 70q78 119 106 289z" />
    <glyph glyph-name="cid1392" unicode="&#x4ef7;" 
d="M138 431q-38 -52 -81 -101l-28 90q123 154 181 354l79 -37q-26 -87 -65 -165v-615h-86v474zM696 458v-498h-81v498h81zM472 456v-132q-1 -256 -130 -375l-63 55q109 99 112 320v132h81zM580 767q80 -173 278 -304l-47 -70q-180 117 -270 293q-102 -196 -257 -303l-47 73
q172 118 265 311h78z" />
    <glyph glyph-name="cid1393" unicode="&#x4efb;" 
d="M813 675q-47 -17 -100.5 -28.5t-115.5 -19.5v-226h252v-83h-252v-253h207v-82h-496v82h206v253h-251v83h251v218q-42 -2 -85 -4t-88 -2l-28 79q276 0 460 53zM309 735q-35 -104 -90 -194v-590h-83v472q-20 -23 -39.5 -46t-42.5 -46l-28 89q138 150 204 350z" />
    <glyph glyph-name="cid1394" unicode="&#x4efd;" 
d="M340 349v78q-9 -11 -19.5 -21.5t-19.5 -20.5l-64 58q123 118 185 320l78 -31q-62 -187 -157 -301h401q0 -296 -13 -369q-13 -97 -117 -97q-15 0 -38.5 1t-56.5 2l-20 80q29 -2 54.5 -4t46.5 -2q44 0 51 58q3 20 6 82t4 167h-134q-22 -135 -60 -223q-46 -94 -143 -170
l-54 70q82 64 122 140q33 69 53 183h-105zM307 739q-33 -101 -87 -190v-598h-84v473q-40 -48 -83 -94l-27 89q137 151 204 355zM652 774q58 -188 203 -308l-57 -66q-158 131 -218 334z" />
    <glyph glyph-name="cid1395" unicode="&#x4eff;" 
d="M303 739q-15 -45 -33 -88t-40 -85v-615h-83v486q-22 -27 -44.5 -54t-47.5 -53l-28 90q68 77 116 166t81 192zM294 558v82h233q-11 32 -23.5 63t-25.5 60l92 15q22 -62 42 -138h227v-82h-337v-59q0 -38 -3 -73h289q-2 -157 -8 -255t-18 -137q-23 -72 -110 -75q-30 0 -63 1
t-72 3l-24 75q44 -2 81.5 -3t68.5 -1q42 2 51 49q4 26 5.5 91.5t3.5 171.5h-211q-31 -259 -160 -391l-67 58q151 151 155 486v59h-126z" />
    <glyph glyph-name="cid1396" unicode="&#x4f01;" 
d="M475 770q167 -183 384 -287l-46 -81q-216 110 -370 292q-141 -170 -373 -293l-45 82q233 114 387 287h63zM511 531v-189h235v-81h-235v-196h299v-81h-743v81h127v339h84v-339h148v466h85z" />
    <glyph glyph-name="cid1398" unicode="&#x4f0a;" 
d="M542 258q-6 -38 -16.5 -70t-23.5 -59q-59 -118 -189 -177l-46 72q108 49 160 148q10 18 16.5 39t13.5 47h-138v79h150q2 25 4 52t2 57h-192v80h192v110h-142v78h447v-188h70v-80h-70v-188h-238zM558 526h138v110h-138v-110zM558 446q0 -30 -1 -57t-4 -52h143v109h-138z
M138 431q-19 -26 -39.5 -51.5t-43.5 -51.5l-29 91q126 156 184 359l79 -39q-26 -86 -65 -165v-623h-86v480z" />
    <glyph glyph-name="cid1399" unicode="&#x4f0d;" 
d="M450 448l25 195h-156v80h494v-80h-256l-23 -195h219v-384h93v-81h-582v81h137l38 302h-125v82h136zM672 64v302h-150l-38 -302h188zM309 742q-18 -53 -39 -102t-50 -95v-594h-84v471q-18 -25 -38 -47t-42 -45l-29 89q137 154 204 360z" />
    <glyph glyph-name="cid1401" unicode="&#x4f0f;" 
d="M145 434q-21 -28 -42.5 -54t-44.5 -52l-27 90q125 152 183 356l79 -37q-14 -44 -29.5 -84.5t-36.5 -79.5v-622h-82v483zM696 748q72 -78 109 -137l-66 -46q-20 33 -47 68t-62 76zM591 768q0 -98 -4 -236h251v-81h-238q66 -281 257 -436l-58 -64q-182 158 -245 394
q-71 -237 -248 -394l-60 64q211 192 248 436h-212v81h219q2 78 3.5 137t1.5 99h85z" />
    <glyph glyph-name="cid1402" unicode="&#x4f10;" 
d="M145 434q-20 -27 -41.5 -52.5t-44.5 -51.5l-27 90q124 153 182 352l79 -36q-14 -43 -29.5 -83.5t-36.5 -79.5v-622h-82v483zM822 514l-306 -50q5 -30 9 -58.5t11 -54.5q14 -64 34 -116q47 46 85.5 100t69.5 115l72 -36q-41 -76 -88.5 -140t-104.5 -118q3 -9 8 -16.5
t9 -14.5q54 -78 98 -79q26 6 56 150l75 -48q-23 -71 -51 -126q-36 -62 -77 -62q-69 0 -139 86q-11 14 -21.5 29t-19.5 31q-51 -39 -108.5 -70t-120.5 -54l-46 70q138 46 239 128q-11 27 -20.5 56t-18.5 62q-21 67 -31 153l-160 -24l-13 79l162 25q-10 107 -10 239h84
q0 -61 2 -117t7 -108l301 47zM641 773q23 -29 46.5 -61.5t46.5 -69.5l-74 -36q-20 37 -42.5 70.5t-46.5 62.5z" />
    <glyph glyph-name="cid1403" unicode="&#x4f11;" 
d="M137 422q-19 -23 -39 -46t-41 -46l-27 90q134 150 199 354l80 -36q-18 -51 -39 -99.5t-48 -93.5v-594h-85v471zM499 599v166h82v-166h222v-80h-171q77 -207 225 -348l-56 -77q-130 154 -220 415v-557h-82v555q-85 -264 -213 -419l-49 79q131 130 209 352h-149v80h202z
" />
    <glyph glyph-name="cid1404" unicode="&#x4f17;" 
d="M475 767q161 -199 371 -310l-45 -79q-106 60 -194.5 138t-163.5 175q-137 -181 -363 -312l-44 78q227 124 376 310h63zM321 457q0 -47 -3.5 -89.5t-8.5 -80.5q38 -38 72 -72.5t63 -71.5l-59 -60q-20 29 -43 60t-53 64q-2 -8 -2 -11q-41 -136 -194 -228l-51 64
q128 76 166 186q32 92 32 239h81zM632 464q0 -39 -2 -76t-5 -71q62 -178 224 -286l-53 -64q-64 47 -113.5 101.5t-83.5 120.5q-39 -136 -172 -227l-51 64q113 79 147 192q26 94 28 246h81z" />
    <glyph glyph-name="cid1405" unicode="&#x4f18;" 
d="M145 430q-21 -26 -43.5 -51t-46.5 -49l-25 84q137 153 200 356l78 -35q-17 -48 -36.5 -93t-44.5 -88v-602h-82v478zM454 562q2 12 2 22v22v162h81v-162q0 -12 -0.5 -22.5t-1.5 -21.5h291v-82h-177v-416q0 -21 19 -21h70q9 0 20 15q11 16 15 130l75 -24
q-6 -72 -13.5 -114.5t-16.5 -55.5q-21 -25 -60 -27h-112q-78 0 -78 83v430h-39q-28 -349 -218 -525l-61 53q170 157 199 472h-171v82h176zM651 758q82 -57 139 -116l-57 -57q-25 27 -59 57t-78 63z" />
    <glyph glyph-name="cid1406" unicode="&#x4f19;" 
d="M145 425q-19 -23 -39.5 -46t-41.5 -46l-29 91q135 151 200 350l77 -37q-17 -51 -38 -99t-47 -93v-590h-82v470zM435 606q-16 -158 -67 -278l-75 23q52 118 64 263zM604 763q0 -57 -1 -112t-3 -112q-1 -23 -2 -45t-3 -44q62 -288 261 -436l-58 -64q-176 146 -233 352
q-66 -208 -243 -352l-57 64q250 195 253 515q0 62 0.5 121t0.5 113h85zM826 609q-16 -77 -36 -145t-43 -126l-75 28q45 103 79 264z" />
    <glyph glyph-name="cid1407" unicode="&#x4f1a;" 
d="M475 772q166 -183 384 -289l-46 -82q-39 21 -76 44t-72 48v-67h-440v70q-38 -25 -76 -48.5t-79 -46.5l-45 81q233 117 387 290h63zM648 506q-116 84 -205 191q-86 -106 -205 -191h410zM803 327v-81h-413q-30 -56 -64.5 -103.5t-73.5 -88.5q191 10 368 31
q-20 26 -41.5 52.5t-44.5 52.5l64 42q62 -66 108.5 -123t79.5 -106l-72 -49q-11 16 -22.5 34t-23.5 37q-104 -17 -232.5 -29.5t-285.5 -21.5l-23 72q29 8 44 23q70 82 122 177h-209v81h719z" />
    <glyph glyph-name="cid1409" unicode="&#x4f1e;" 
d="M401 256v309h84v-309h333v-81h-333v-218h-84v218h-333v81h333zM712 450q-15 -44 -36 -86.5t-47 -84.5l-67 36q52 86 82 168zM475 768q165 -158 382 -249l-42 -76q-218 96 -372 250q-141 -151 -371 -262l-42 76q231 106 383 261h62zM244 470q39 -70 70 -166l-70 -17
q-14 40 -32 80t-40 80z" />
    <glyph glyph-name="cid1410" unicode="&#x4f1f;" 
d="M503 676v91h86v-91h224v-79h-224v-92h187v-80h-187v-89h244q0 -205 -31 -250q-28 -43 -108 -45h-39l-23 76h40q50 0 64 25q15 26 16 113h-163v-303h-86v303h-226v81h226v89h-167v80h167v92h-200v79h200zM138 424q-19 -24 -40 -47.5t-44 -46.5l-28 90q137 152 204 352
l79 -37q-34 -100 -87 -191v-593h-84v473z" />
    <glyph glyph-name="cid1411" unicode="&#x4f20;" 
d="M138 423q-19 -24 -39.5 -47t-43.5 -46l-28 89q137 153 202 352l80 -36q-35 -102 -87 -193v-591h-84v472zM478 664l24 107l82 -8q-5 -26 -10.5 -50.5t-11.5 -48.5h256v-81h-277q-6 -22 -12.5 -42.5t-12.5 -41.5h338v-80h-364q-10 -26 -19 -49t-18 -45h352v-73
q-26 -42 -66.5 -84.5t-96.5 -85.5q55 -30 109 -64l-49 -72q-82 55 -165 97t-169 74l46 67q40 -16 78 -32.5t77 -33.5q93 65 148 128h-373q18 43 33 85.5t32 87.5h-141v80h167q6 21 11.5 41.5t11.5 42.5h-150v81h170z" />
    <glyph glyph-name="cid1413" unicode="&#x4f24;" 
d="M308 743q-17 -52 -38.5 -99.5t-49.5 -94.5v-598h-84v473q-20 -24 -40 -47.5t-43 -46.5l-28 90q136 153 203 361zM514 770q-8 -26 -16 -50t-19 -49h362v-80h-403q-49 -79 -115 -137l-53 70q120 107 162 256zM576 547v-119h246q0 -308 -14 -380q-14 -86 -117 -86
q-17 0 -47 1.5t-74 3.5l-20 72q38 -2 70 -3t59 -1q42 0 49 48q4 20 6 85.5t5 177.5h-167q-27 -266 -227 -399l-66 59q181 111 208 340h-154v82h159v119h84z" />
    <glyph glyph-name="cid1415" unicode="&#x4f26;" 
d="M587 768q80 -159 272 -280l-48 -72q-178 113 -262 272q-53 -89 -117 -158.5t-143 -117.5l-48 73q174 107 271 283h75zM473 -33q-101 0 -101 101v380h86v-143q66 20 128.5 47.5t123.5 62.5l49 -70q-156 -81 -301 -122v-138q0 -38 42 -38h172q30 0 47 20q16 19 24 124
l80 -27q-14 -145 -45 -171q-27 -26 -91 -26h-214zM308 742q-34 -104 -88 -195v-596h-84v472q-20 -24 -40 -47t-42 -46l-28 90q136 154 202 359z" />
    <glyph glyph-name="cid1417" unicode="&#x4f2a;" 
d="M145 437q-40 -54 -88 -107l-27 87q124 151 185 355l76 -35q-12 -41 -27 -81.5t-35 -77.5v-627h-84v486zM364 755q57 -72 93 -130l-65 -44q-37 61 -91 129zM577 372q39 -49 68.5 -90.5t49.5 -79.5l-67 -45q-19 34 -42.5 72.5t-53.5 78.5q-8 -30 -16 -56.5t-17 -51.5
q-61 -154 -203 -240l-44 70q134 88 183 231q14 45 24 99t17 115h-175v81h182q4 45 4 93v121h82v-121q-3 -48 -4 -93h245q0 -198 -3.5 -318.5t-8.5 -167.5q-18 -107 -147 -107q-11 0 -28.5 1.5t-42.5 2.5l-18 74q22 -1 41 -2t36 -1q69 0 80 70q3 27 5 118.5t4 248.5h-170
q-4 -34 -8 -65.5t-10 -61.5z" />
    <glyph glyph-name="cid1419" unicode="&#x4f2f;" 
d="M152 436q-23 -26 -46.5 -53t-48.5 -53l-28 90q139 150 207 353l77 -37q-30 -92 -78 -175v-610h-83v485zM805 -42h-82v40h-302v-40h-82v685h140q26 66 37 130l86 -11q-14 -61 -40 -119h243v-685zM723 79v208h-302v-208h302zM723 363v200h-302v-200h302z" />
    <glyph glyph-name="cid1420" unicode="&#x4f30;" 
d="M301 740q-17 -52 -39 -101.5t-49 -97.5v-590h-85v465q-18 -23 -36.5 -44.5t-38.5 -43.5l-28 90q132 155 195 361zM519 601v169h86v-169h245v-80h-245v-168h194v-399h-85v35h-299v-35h-84v399h188v168h-234v80h234zM714 69v205h-299v-205h299z" />
    <glyph glyph-name="cid1422" unicode="&#x4f34;" 
d="M396 719q19 -39 36.5 -83t33.5 -94l-79 -20q-14 44 -32 87t-38 83zM809 715q-31 -112 -78 -196l-78 27q44 74 75 189zM517 487v282h85v-282h224v-80h-224v-125h248v-82h-248v-248h-85v248h-243v82h243v125h-217v80h217zM297 740q-15 -51 -36.5 -99.5t-46.5 -94.5v-595
h-82v469q-19 -24 -38.5 -46.5t-38.5 -43.5l-28 90q132 154 191 358z" />
    <glyph glyph-name="cid1423" unicode="&#x4f36;" 
d="M502 551q32 -22 60.5 -48t54.5 -55l-51 -57q-54 61 -119 108zM297 739q-15 -51 -36.5 -100t-46.5 -93v-595h-82v469q-19 -23 -38.5 -45t-38.5 -45l-28 90q132 154 191 356zM763 377v-71q-78 -117 -183 -211q32 -22 62 -42.5t56 -41.5l-60 -60q-110 94 -306 203l57 56
q33 -17 63.5 -35t60.5 -36q36 33 74.5 72.5t77.5 87.5h-376v78h474zM570 765q82 -163 283 -283l-46 -68q-187 110 -272 269q-112 -177 -274 -271l-46 68q184 110 281 285h74z" />
    <glyph glyph-name="cid1424" unicode="&#x4f38;" 
d="M389 272h134v109h-134v-109zM389 196v-40h-79v485h213v126h82v-126h218v-485h-80v40h-138v-244h-82v244h-134zM743 272v109h-138v-109h138zM743 564h-138v-107h138v107zM389 564v-107h134v107h-134zM306 740q-19 -51 -41 -100.5t-48 -95.5v-593h-82v471q-20 -23 -39 -46
t-41 -46l-28 90q69 77 117.5 166t82.5 192z" />
    <glyph glyph-name="cid1425" unicode="&#x4f3a;" 
d="M599 -43l-22 79l130 -2q31 0 31 46v583h-444v79h529v-686q0 -99 -99 -99h-125zM676 575v-77h-386v77h386zM643 419v-296h-326v296h326zM561 342h-161v-142h161v142zM280 740q-14 -43 -29 -85t-35 -81v-623h-82v480q-20 -26 -38.5 -50.5t-40.5 -50.5l-28 90
q119 155 175 359z" />
    <glyph glyph-name="cid1426" unicode="&#x4f3c;" 
d="M274 150q49 17 49 49v547h84v-555q28 13 56.5 25.5t55.5 28.5l22 -73q-57 -29 -117 -53.5t-124 -46.5zM140 430q-18 -26 -40 -51.5t-45 -51.5l-29 90q133 157 193 357l79 -36q-31 -96 -74 -181v-600h-84v473zM768 767q0 -259 -43 -435q-5 -26 -12 -48.5t-15 -45.5
q52 -65 92.5 -122.5t68.5 -108.5l-67 -45q-26 48 -58 97t-70 104q-65 -122 -179 -212l-53 65q164 133 214 328q20 82 30.5 186.5t10.5 236.5h81zM512 666q58 -104 102 -224l-68 -31q-23 66 -48 123.5t-53 109.5z" />
    <glyph glyph-name="cid1427" unicode="&#x4f3d;" 
d="M128 429q-17 -25 -34.5 -48.5t-37.5 -47.5l-29 91q113 151 171 352l76 -36q-14 -46 -30 -88.5t-37 -85.5v-614h-79v477zM543 615q0 -209 -2.5 -336t-8.5 -174q-10 -146 -100 -146q-10 0 -26 1t-39 2l-19 76q20 -2 38 -3t34 -1q32 0 38 106q4 30 6 128t3 267h-69v-42
q-3 -371 -116 -542l-64 55q52 77 76.5 197.5t26.5 289.5v42h-71v80h71v157h77v-157h145zM823 -19h-76v51h-79v-51h-75v673h230v-673zM747 107v472h-79v-472h79z" />
    <glyph glyph-name="cid1429" unicode="&#x4f46;" 
d="M787 719v-537h-434v537h434zM701 408h-265v-148h265v148zM701 487v154h-265v-154h265zM849 65v-82h-562v82h562zM309 742q-18 -53 -39 -102t-50 -95v-594h-83v473q-19 -24 -39 -47.5t-43 -46.5l-29 90q141 155 204 359z" />
    <glyph glyph-name="cid15128" unicode="&#x4f47;" 
d="M833 477h-78v117h-370v-117h-79v194h223q-11 27 -23 49.5t-24 44.5l87 14q12 -23 23.5 -50t22.5 -58h218v-194zM407 -40l-19 81q61 -3 118 -3q36 0 36 35v280h-245v82h545v-82h-214v-300q0 -93 -91 -93h-130zM309 742q-18 -53 -39 -102t-51 -96v-593h-83v471
q-18 -23 -38 -46t-42 -46l-29 90q138 154 204 359z" />
    <glyph glyph-name="cid15129" unicode="&#x4f48;" 
d="M286 739q-12 -41 -27.5 -81.5t-33.5 -79.5v-622h-83v481q-18 -27 -39.5 -54t-44.5 -53l-26 86q62 78 106.5 166t74.5 192zM464 653q8 28 16.5 56.5t14.5 58.5l77 -13q-7 -27 -14 -52.5t-15 -49.5h295v-79h-323q-31 -78 -69 -141h107v105h78v-105h182v-321q0 -75 -82 -75
h-55l-20 72l52 -4q26 0 26 25v230h-103v-406h-78v406h-97v-335h-78v309q-46 -56 -98 -99l-47 58q127 114 200 281h-145v79h176z" />
    <glyph glyph-name="cid1430" unicode="&#x4f4d;" 
d="M308 742q-33 -105 -86 -193v-598h-84v474q-19 -24 -39.5 -48t-43.5 -47l-28 90q137 155 202 359zM519 635q-8 32 -18 61.5t-23 58.5l90 13q8 -30 17.5 -63.5t18.5 -69.5h226v-81h-540v81h229zM577 71q32 89 61 197t53 239l80 -21q-21 -117 -48 -220t-59 -195h190v-82
h-578v82h301zM414 499q50 -165 89 -385l-78 -21q-16 101 -39 195t-50 187z" />
    <glyph glyph-name="cid1431" unicode="&#x4f4e;" 
d="M396 84q17 7 33 14.5t32 15.5l14 -73q-37 -14 -79.5 -30.5t-93.5 -31.5l-20 72q32 12 32 43v571q142 22 251 45.5t190 49.5l47 -68q-33 -11 -71.5 -21.5t-81.5 -21.5q0 -58 2 -106.5t4 -91.5h180v-80h-173q3 -25 6 -47t7 -40q10 -59 21.5 -100.5t25.5 -67.5
q26 -53 39 -53q12 0 24 136l69 -37q-27 -199 -79 -199q-44 0 -92 72q-50 70 -83 217q-5 26 -9.5 56t-9.5 63h-185v-287zM568 632q-41 -8 -82.5 -15.5t-89.5 -15.5v-150h178q-5 84 -6 181zM539 157q36 -46 64 -85.5t48 -73.5l-63 -44q-42 76 -106 163zM302 738
q-30 -97 -83 -187v-600h-81v476q-39 -50 -83 -97l-26 89q67 76 115.5 164t82.5 190z" />
    <glyph glyph-name="cid1432" unicode="&#x4f4f;" 
d="M519 626q-9 32 -22 62.5t-26 59.5l82 22q31 -79 49 -144h226v-82h-226v-190h202v-80h-202v-211h246v-82h-577v82h246v211h-205v80h205v190h-232v82h234zM306 740q-19 -51 -41 -100.5t-48 -95.5v-593h-82v472q-20 -24 -39.5 -47t-41.5 -46l-28 90q135 153 201 359z" />
    <glyph glyph-name="cid1433" unicode="&#x4f50;" 
d="M471 631q18 69 31 135l82 -14q-5 -31 -12 -61.5t-15 -59.5h268v-81h-290q-16 -47 -31 -89t-34 -82h328v-81h-158v-240h202v-79h-525v79h240v240h-127q-31 -54 -64.5 -100.5t-70.5 -87.5l-55 68q68 76 119 168t88 204h-142v81h166zM308 740q-36 -105 -90 -196v-593h-81
v473q-19 -23 -39.5 -47t-43.5 -47l-28 90q137 155 202 359z" />
    <glyph glyph-name="cid1434" unicode="&#x4f51;" 
d="M309 732q-35 -105 -90 -194v-583h-83v462q-20 -24 -39.5 -46.5t-41.5 -45.5l-29 91q137 150 203 353zM790 -44h-83v47h-216v-47h-82v307q-56 -77 -122 -131l-43 77q145 129 215 347h-153v79h173q10 33 15.5 67t10.5 69l84 -10q-6 -33 -12 -64.5t-12 -61.5h268v-79h-287
q-14 -47 -29.5 -89t-34.5 -82h308v-429zM707 81v229h-216v-229h216z" />
    <glyph glyph-name="cid1435" unicode="&#x4f53;" 
d="M133 403q-19 -24 -37.5 -47.5t-38.5 -45.5l-25 83q130 164 193 381l75 -35q-16 -53 -37.5 -104t-47.5 -101v-583h-82v452zM502 629v142h82v-142h236v-82h-169q29 -104 79.5 -196t123.5 -175l-54 -67q-156 194 -216 438v-338h127v-80h-127v-177h-82v177h-124v80h124v338
q-67 -273 -224 -450l-43 73q135 148 200 377h-157v82h224z" />
    <glyph glyph-name="cid15135" unicode="&#x4f54;" 
d="M566 770v-152h284v-81h-284v-144h226v-442h-84v36h-312v-36h-84v442h170v377h84zM708 69v244h-312v-244h312zM324 743q-36 -107 -92 -203v-589h-83v469q-20 -24 -40 -46.5t-41 -43.5l-28 89q141 155 206 361z" />
    <glyph glyph-name="cid1436" unicode="&#x4f55;" 
d="M849 722v-81h-63v-593q0 -93 -90 -93h-150l-20 83q37 -3 71.5 -4.5t68.5 -1.5q35 0 35 37v572h-401v81h549zM610 527v-344h-296v344h296zM529 450h-133v-191h133v191zM294 743q-16 -51 -35.5 -97t-43.5 -92v-603h-82v473q-19 -23 -38 -47t-40 -47l-28 90q131 155 191 359
z" />
    <glyph glyph-name="cid1439" unicode="&#x4f59;" 
d="M473 769q84 -76 179.5 -135t205.5 -103l-45 -77q-70 31 -130 65v-63h-190v-96h316v-81h-316v-218q0 -99 -101 -99h-107l-20 79q52 -3 99 -3t47 45v196h-331v81h331v96h-206v64q-32 -19 -66 -35t-70 -33l-44 78q233 96 388 239h60zM652 537q-115 67 -209 159
q-44 -44 -96 -83t-112 -76h417zM317 202q-38 -68 -86 -120t-107 -89l-65 55q124 70 183 185zM643 246q123 -114 193 -203l-71 -49q-68 96 -188 213z" />
    <glyph glyph-name="cid1441" unicode="&#x4f5b;" 
d="M289 742q-15 -52 -35.5 -100t-45.5 -95v-596h-80v469q-17 -23 -34.5 -44.5t-36.5 -42.5l-27 86q126 157 183 359zM336 322h72q2 24 3.5 49.5t3.5 52.5h-65zM494 424q-2 -56 -6 -102h82v102h-76zM651 322h183q0 -181 -21 -229q-21 -51 -93 -52q-11 0 -20.5 0.5t-19.5 1.5
l-20 77q22 -4 46 -4q34 0 41 34q8 32 8 98h-104v-297h-81v297h-93q-7 -34 -15 -65.5t-19 -57.5q-47 -113 -154 -177l-47 70q99 64 136 166q6 15 9 31.5t8 32.5h-143l28 248h135v102h-129v73h129v96h80v-96h75v96h81v-96h152v-247h-152v-102zM495 496h75v102h-75v-102z
M651 496h78v102h-78v-102z" />
    <glyph glyph-name="cid1442" unicode="&#x4f5c;" 
d="M438 570q-60 -125 -137 -221l-61 74q112 129 187 356l87 -20q-10 -27 -20 -53.5t-19 -52.5h364v-83h-285v-125h250v-83h-250v-130h251v-81h-251v-200h-84v619h-32zM136 424q-20 -23 -39.5 -45t-41.5 -45l-29 91q137 151 203 349l80 -36q-18 -51 -39.5 -99t-49.5 -93v-595
h-84v473z" />
    <glyph glyph-name="cid1446" unicode="&#x4f60;" 
d="M136 420q-20 -24 -39.5 -47t-41.5 -46l-28 90q137 153 204 359l79 -37q-17 -52 -38.5 -101.5t-51.5 -96.5v-589h-84v468zM733 418q32 -79 60.5 -161.5t50.5 -171.5l-74 -33q-25 97 -53.5 181.5t-57.5 159.5zM420 588q-20 -50 -43 -94t-49 -86l-74 45q101 147 142 317
l79 -15q-6 -23 -12 -44.5t-14 -41.5h373v-55q-11 -39 -23.5 -78.5t-28.5 -79.5l-82 23q14 24 25.5 51t20.5 58h-314zM409 -41l-19 79q28 -2 53.5 -4t50.5 -2q32 0 32 35v456h81v-477q0 -87 -85 -87h-113zM457 389q-46 -182 -121 -322l-78 28q71 124 123 313z" />
    <glyph glyph-name="cid1447" unicode="&#x4f63;" 
d="M400 333v-39h125v144h-125v-105zM393 217q-19 -161 -82 -269l-65 58q71 125 74 322v411h502v-701q0 -83 -88 -83h-73l-20 79q19 -3 36.5 -4t32.5 -1q30 0 30 36v152h-134v-251h-81v251h-132zM740 438h-134v-144h134v144zM740 659h-134v-143h134v143zM400 659v-143h125
v143h-125zM132 423q-20 -24 -39 -48t-40 -47l-27 88q128 152 190 360l78 -36q-16 -51 -36 -98.5t-46 -92.5v-598h-80v472z" />
    <glyph glyph-name="cid1451" unicode="&#x4f69;" 
d="M662 602v-70h-106v-76h108v-342q0 -68 -54 -68h-54v-80h-67v424h-45v-352h-60v418h105v76h-109v70h282zM586 107q16 0 16 25v258h-46v-282zM764 739v-480q0 -69 2 -112t4 -63q5 -38 14 -38q12 0 20 134l58 -28q-6 -58 -14.5 -96.5t-15.5 -57.5q-20 -39 -41 -39
q-51 0 -71 59q-25 59 -25 241v409h-343v-301q-5 -247 -70 -411l-62 49q57 143 60 362v372h484zM264 742q-26 -92 -62 -175v-616h-76v479q-17 -26 -35 -51t-37 -49l-27 84q110 153 164 360z" />
    <glyph glyph-name="cid1455" unicode="&#x4f73;" 
d="M515 672v98h85v-98h191v-81h-191v-110h234v-82h-550v82h231v110h-186v81h186zM515 274v96h85v-96h198v-81h-198v-128h248v-82h-578v82h245v128h-195v81h195zM136 422q-20 -23 -39.5 -46t-41.5 -46l-28 90q137 155 202 359l80 -39q-18 -51 -39.5 -99.5t-49.5 -94.5v-595
h-84v471z" />
    <glyph glyph-name="cid15147" unicode="&#x4f75;" 
d="M324 738q-28 -83 -73 -164v-623h-84v499q-48 -61 -107 -120l-27 86q147 152 216 357zM439 771q46 -58 87 -135l-57 -27h156q49 75 86 162l79 -27q-36 -75 -81 -135h117v-79h-103v-190h127v-79h-127v-307h-79v307h-153q-24 -204 -151 -312l-62 54q109 88 133 258h-124v79
h129q0 6 1 10t1 8v172h-110v79h145q-37 71 -84 129zM498 358q0 -4 -1 -8.5t-1 -9.5h148v190h-146v-172z" />
    <glyph glyph-name="cid1459" unicode="&#x4f7c;" 
d="M516 664q-12 26 -24 51t-25 48l86 16q13 -27 24 -55t23 -60h228v-83h-537v83h225zM487 528q-23 -44 -48.5 -84t-53.5 -75l68 21q9 -56 34.5 -104.5t65.5 -90.5q34 42 56 92t35 109l79 -16q-29 -143 -106 -240q47 -35 105 -64.5t131 -54.5l-42 -72q-152 55 -249 133
q-103 -92 -261 -131l-46 73q149 34 244 115q-91 99 -118 226q-14 -18 -28 -34t-30 -32l-67 48q47 46 87.5 99t72.5 116zM678 565q114 -122 176 -212l-66 -47q-32 51 -75.5 104.5t-98.5 116.5zM135 424q-37 -51 -79 -97l-27 90q124 153 183 357l78 -37q-14 -48 -32 -92.5
t-41 -87.5v-606h-82v473z" />
    <glyph glyph-name="cid1461" unicode="&#x4f7f;" 
d="M526 688v82h83v-82h240v-81h-240v-70h205v-263h-208q-10 -109 -41 -174q130 -64 291 -71l-21 -81q-182 12 -317 89q-70 -67 -224 -89l-35 77q126 10 184 60q-36 26 -68.5 58t-62.5 68l64 44q26 -31 54.5 -57.5t60.5 -49.5q22 49 31 126h-193v263h197v70h-223v81h223z
M735 462h-126v-113h126v113zM526 462h-118v-113h118v113zM129 417q-18 -23 -37 -45t-39 -45l-28 91q131 155 192 361l80 -39q-32 -99 -82 -193v-596h-86v466z" />
    <glyph glyph-name="cid1462" unicode="&#x4f83;" 
d="M565 377v-399h-76v399h76zM139 425q-17 -28 -37.5 -54.5t-43.5 -53.5l-28 91q122 156 180 370l76 -36q-25 -89 -64 -175v-610h-83v468zM746 734v-306h-428v306h428zM664 657h-264v-151h264v151zM714 -33q-35 0 -54 23q-19 25 -19 56v337h78v-319q0 -23 23 -23h9
q12 0 20 12q11 14 15 138l68 -21q-13 -152 -28 -176q-19 -26 -61 -27h-51zM412 294q0 -196 -106 -346l-63 55q91 126 91 291v85h78v-85z" />
    <glyph glyph-name="cid15157" unicode="&#x4f86;" 
d="M210 378q-39 -62 -91 -104l-52 64q108 87 146 240l77 -14q-8 -33 -18.5 -63t-22.5 -56q30 -17 57 -35.5t53 -38.5l-45 -70q-51 46 -104 77zM659 384q-16 -24 -34.5 -45t-40.5 -40l-50 67q88 79 119 210l79 -14q-13 -59 -36 -111q34 -20 65 -41t62 -47l-48 -72
q-29 29 -58 52t-58 41zM400 601h-318v80h318v87h87v-87h318v-80h-318v-236q134 -187 366 -293l-48 -79q-185 94 -318 250v-288h-87v286q-123 -149 -318 -251l-45 75q235 115 363 294v242z" />
    <glyph glyph-name="cid1464" unicode="&#x4f88;" 
d="M312 736q-35 -104 -88 -194v-591h-85v469q-20 -24 -40.5 -48t-43.5 -47l-29 91q145 154 211 355zM714 416q-9 -16 -22 -30.5t-25 -29.5h170v-69q-87 -239 -517 -339l-42 77q156 31 262 79q-40 37 -79 71l62 44q48 -34 91 -77q45 30 78.5 64.5t54.5 73.5h-174
q-50 -31 -111.5 -55t-132.5 -42l-47 68q263 59 362 197zM618 757q-18 -28 -39 -54h207v-68q-90 -209 -463 -297l-46 67q64 14 118.5 31.5t102.5 38.5q-20 20 -37.5 34.5t-33.5 24.5l63 45q46 -34 72 -69q81 52 134 120h-185q-38 -32 -78.5 -58.5t-85.5 -49.5l-50 62
q139 65 243 190z" />
    <glyph glyph-name="cid1466" unicode="&#x4f8b;" 
d="M573 724v-80h-153q-4 -29 -7.5 -55.5t-8.5 -51.5h157v-74q-43 -366 -267 -509l-42 74q100 66 160 186q-24 23 -47.5 43t-47.5 36q-12 -22 -26 -41t-29 -39l-43 82q98 128 121 349h-62v80h295zM350 360q26 -14 49 -31t45 -36q13 38 23 80t16 86h-98q-9 -26 -17.5 -50.5
t-17.5 -48.5zM636 -41l-19 80q23 -2 44.5 -3.5t41.5 -1.5q35 0 35 33v701h84v-722q0 -87 -89 -87h-97zM112 406q-14 -18 -28.5 -37.5t-29.5 -38.5l-28 90q110 152 164 359l80 -39q-29 -102 -76 -193v-596h-82v455zM679 688v-548h-77v548h77z" />
    <glyph glyph-name="cid1468" unicode="&#x4f8f;" 
d="M159 442q-47 -59 -102 -112l-27 89q144 153 212 355l79 -36q-31 -88 -78 -171v-616h-84v491zM407 554q-14 -26 -27 -50t-26 -47l-72 44q36 59 61.5 119t42.5 125l81 -17q-7 -24 -14 -47.5t-14 -45.5h87v137h83v-137h188v-81h-188v-125h228v-80h-173q60 -141 194 -251
l-55 -68q-132 131 -194 286v-365h-83v363q-73 -174 -224 -289l-44 71q147 102 214 253h-186v80h240v125h-119z" />
    <glyph glyph-name="cid1469" unicode="&#x4f91;" 
d="M460 677q8 24 14 47.5t13 47.5l83 -13q-6 -22 -12 -42t-11 -40h302v-80h-331q-8 -23 -18.5 -46t-21.5 -44h312v-466q0 -79 -94 -82h-115l-19 76q30 -3 56.5 -4t53.5 -1q40 0 40 38v67h-254v-180h-77v404q-22 -26 -45 -49t-49 -45l-49 62q122 110 192 270h-147v80h177z
M458 202h254v78h-254v-78zM712 430h-254v-81h254v81zM124 415q-31 -43 -70 -85l-29 90q124 152 182 353l79 -36q-33 -104 -80 -192v-594h-82v464z" />
    <glyph glyph-name="cid1471" unicode="&#x4f97;" 
d="M136 436q-36 -54 -82 -108l-28 88q119 158 173 363l79 -37q-13 -44 -27 -84t-34 -80v-623h-81v481zM684 436v-311h-250v311h250zM610 366h-104v-171h104v171zM625 -43l-23 81l107 -4q33 0 33 39v591h-364v-712h-83v788h528v-684q0 -99 -88 -99h-110zM692 586v-77h-268v77
h268z" />
    <glyph glyph-name="cid1472" unicode="&#x4f9b;" 
d="M408 589v179h85v-179h139v179h85v-179h110v-82h-110v-187h136v-82h-577v82h132v187h-107v82h107zM632 320v187h-139v-187h139zM677 222q110 -124 169 -216l-76 -52q-61 100 -162 226zM513 177q-69 -130 -163 -227l-72 54q45 43 84.5 95.5t73.5 116.5zM136 423
q-21 -24 -41.5 -47t-41.5 -46l-28 89q136 154 204 360l80 -37q-18 -52 -39.5 -100t-49.5 -96v-594h-84v471z" />
    <glyph glyph-name="cid1473" unicode="&#x4f9d;" 
d="M297 742q-30 -94 -72 -176v-611h-86v476q-20 -26 -41.5 -51.5t-44.5 -51.5l-28 90q133 157 193 361zM562 770q9 -30 17 -61t17 -68h224v-79h-193q13 -112 42 -205q33 26 61.5 53t53.5 58l53 -67q-55 -58 -141 -114q29 -70 67.5 -129.5t90.5 -107.5l-51 -82
q-215 217 -254 594h-7q-16 -48 -35.5 -90.5t-44.5 -81.5v-318q40 13 77 28.5t75 31.5l13 -80q-55 -24 -120 -46.5t-142 -45.5l-19 74q33 11 33 42v199q-24 -28 -50.5 -53t-56.5 -49l-45 75q157 122 231 314h-180v79h233q-9 30 -18.5 59t-21.5 56z" />
    <glyph glyph-name="cid1474" unicode="&#x4fa0;" 
d="M124 415q-17 -23 -34 -44t-36 -43l-28 90q62 78 106.5 167.5t74.5 192.5l79 -39q-16 -51 -36 -99.5t-44 -93.5v-595h-82v464zM786 545q-12 -47 -29 -87.5t-37 -75.5l-69 25q20 30 35 69t28 87zM368 561q31 -69 55 -159l-70 -19q-12 41 -25.5 79.5t-29.5 75.5zM506 668
v102h83v-102h223v-79h-223v-101q0 -34 -3 -65.5t-6 -62.5h251v-79h-223q78 -146 252 -260l-59 -74q-172 134 -252 291q-72 -197 -271 -292l-50 68q192 82 250 267h-208v79h228q3 28 5.5 54.5t2.5 55.5v119h-221v79h221z" />
    <glyph glyph-name="cid15173" unicode="&#x4fa1;" 
d="M823 -48h-80v54h-355v-51h-80v579h148v126h-161v80h542v-80h-161v-126h147v-582zM535 660v-126h61v126h-61zM456 81v378h-68v-378h68zM535 81h61v378h-61v-378zM676 81h67v378h-67v-378zM287 739q-29 -96 -74 -182v-606h-83v473q-18 -24 -37 -47.5t-40 -46.5l-28 89
q124 153 184 359z" />
    <glyph glyph-name="cid1475" unicode="&#x4fa3;" 
d="M785 733v-309h-429v309h429zM702 657h-266v-158h266v158zM823 -45h-84v48h-343v-49h-82v389h509v-388zM739 82v185h-343v-185h343zM138 426q-19 -25 -40 -49t-44 -47l-27 85q137 155 202 357l77 -35q-17 -49 -37.5 -96t-46.5 -90v-600h-84v475z" />
    <glyph glyph-name="cid1477" unicode="&#x4fa6;" 
d="M586 774v-60h241v-78h-241v-64h194v-418h-84v342h-282v-353h-81v429h169v202h84zM640 157q119 -72 206 -150l-60 -59q-35 36 -86 75t-117 82zM599 441v-121q-5 -150 -71 -238q-61 -82 -206 -130l-44 72q137 45 187 110q47 70 53 186v121h81zM139 426q-18 -24 -39.5 -46.5
t-44.5 -45.5l-25 84q71 77 123 165t85 190l79 -36q-35 -103 -93 -195v-591h-85v475z" />
    <glyph glyph-name="cid1478" unicode="&#x4fa7;" 
d="M565 182h-74v474h-150v-481h-75v552h299v-545zM477 144q36 -33 65.5 -67t54.5 -66l-59 -60q-39 65 -113 144zM450 619v-288q-4 -154 -46 -246q-40 -85 -134 -134l-43 67q90 47 121 119q32 73 36 194v288h66zM116 418q-15 -23 -30 -44t-32 -43l-28 88q55 77 94.5 165
t64.5 192l74 -33q-26 -93 -65 -181v-611h-78v467zM641 -41l-18 79q23 -3 45 -4.5t42 -1.5q30 0 30 33v703h82v-722q0 -87 -83 -87h-98zM686 691v-547h-72v547h72z" />
    <glyph glyph-name="cid1484" unicode="&#x4faf;" 
d="M652 587v78h-312v77h393v-155h104v-77h-554v77h369zM392 363q-32 -42 -70 -76l-50 60q68 57 116 154l73 -16q-5 -12 -10.5 -23.5t-11.5 -21.5h355v-77h-197q-2 -25 -5 -47.5t-8 -43.5h247v-75h-201q48 -106 221 -168l-46 -73q-191 84 -244 224q-8 -17 -14.5 -32
t-16.5 -28q-61 -95 -211 -166l-53 64q133 58 193 138q6 9 11 20t10 21h-209v75h233q10 42 14 91h-126zM139 433q-20 -28 -40.5 -53.5t-43.5 -51.5l-28 89q125 151 183 356l79 -36q-27 -88 -65 -167v-619h-85v482z" />
    <glyph glyph-name="cid1485" unicode="&#x4fb5;" 
d="M119 412l-32 -42t-34 -40l-28 90q120 152 178 359l79 -39q-17 -51 -36 -100.5t-44 -97.5v-591h-83v461zM318 448v68h369v47h-344v68h344v47h-373v67h449v-297h-445zM824 251h-77v-33q-40 -76 -118 -130q46 -19 99.5 -35.5t117.5 -30.5l-45 -70q-76 20 -137.5 41.5
t-111.5 47.5q-108 -56 -268 -90l-30 74q65 12 119 28t102 35q-77 54 -116 126h-37v40h-60v153h562v-156zM443 214q41 -49 107 -88q66 40 105 88h-212zM745 284v54h-404v-54h404z" />
    <glyph glyph-name="cid15183" unicode="&#x4fb6;" 
d="M356 425v308h429v-308h-191q-3 -22 -8 -42.5t-11 -39.5h248v-388h-84v48h-343v-49h-82v389h178q7 19 12.5 39.5t9.5 42.5h-158zM739 82v185h-343v-185h343zM702 657h-266v-158h266v158zM138 426q-19 -25 -40 -49t-44 -47l-27 84q136 154 202 359l77 -35
q-17 -50 -37.5 -97t-46.5 -90v-600h-84v475z" />
    <glyph glyph-name="cid15184" unicode="&#x4fb7;" 
d="M690 317v-227h-222v227h222zM622 253h-86v-98h86v98zM436 664v-75h287v75h-287zM436 452h391q0 -171 -3 -274.5t-10 -142.5q-13 -78 -130 -78q-11 0 -30.5 1t-45.5 2l-19 70q25 -1 45.5 -2t39.5 -1q54 0 64 42q4 23 6.5 99.5t3.5 208.5h-313q-5 -122 -32 -225.5
t-79 -192.5l-62 57q92 156 94 401v326h448v-229h-368v-62zM321 733q-36 -103 -92 -196v-586h-81v472q-21 -26 -43.5 -50t-46.5 -48l-26 90q143 149 214 353z" />
    <glyph glyph-name="cid1486" unicode="&#x4fbf;" 
d="M838 739v-78h-244v-62h204v-355h-207q-11 -87 -48 -144q135 -65 313 -73l-20 -77q-195 11 -344 91q-73 -59 -202 -91l-41 67q57 15 99 33t72 37q-30 22 -57 46t-53 51l62 42q23 -22 48 -43t52 -41q27 44 36 102h-200v355h204v62h-211v78h537zM720 389h-126v-76h126v76z
M512 389h-125v-76h125v76zM512 456v74h-125v-74h125zM594 456h126v74h-126v-74zM128 420q-16 -24 -33.5 -46.5t-37.5 -45.5l-28 90q119 150 174 354l76 -35q-13 -47 -30.5 -90.5t-38.5 -85.5v-610h-82v469z" />
    <glyph glyph-name="cid15194" unicode="&#x4fc2;" 
d="M307 742q-18 -53 -40.5 -102t-48.5 -96v-593h-81v472q-19 -24 -39 -48t-42 -47l-27 91q135 156 199 360zM433 -38l-18 78q21 -2 40.5 -3.5t38.5 -1.5q27 0 27 33v200q-48 -4 -95 -8t-96 -7l-18 71q7 1 14 2.5t14 3.5q72 30 188 138q-43 -7 -87.5 -12t-92.5 -8l-15 67
q83 35 142 128q-33 -2 -67.5 -3.5t-68.5 -1.5l-26 74q271 0 460 57l37 -66q-101 -37 -245 -53q-40 -76 -93 -124q33 3 66.5 6t66.5 8q20 20 40.5 42t41.5 45l77 -29q-86 -90 -158 -157t-135 -111q57 6 113.5 11.5t112.5 11.5q-13 16 -24.5 32.5t-23.5 33.5l60 37
q44 -55 76.5 -102.5t56.5 -86.5l-62 -44q-9 18 -19 35.5t-23 34.5q-35 -4 -68.5 -8.5t-67.5 -8.5v-229q0 -85 -80 -85h-89zM435 180q-26 -58 -58 -105t-68 -88l-63 45q37 37 66 82.5t55 97.5zM707 226q87 -109 136 -194l-63 -44q-25 46 -58.5 95.5t-76.5 104.5z" />
    <glyph glyph-name="cid1487" unicode="&#x4fc3;" 
d="M128 418q-17 -23 -34.5 -45.5t-36.5 -42.5l-28 89q63 76 107.5 163.5t73.5 189.5l77 -35q-15 -49 -33.5 -96t-43.5 -90v-600h-82v467zM791 740v-299h-175v-126h199v-78h-199v-185q22 -2 46 -4t52 -5q39 0 73.5 1t66.5 2l-16 -79h-84q-191 0 -262 39q-73 36 -118 115
q-19 -51 -41.5 -94.5t-48.5 -78.5l-54 66q47 70 78 162.5t48 208.5l80 -13q-6 -44 -14.5 -82t-17.5 -74q16 -46 50 -84q35 -41 80 -59v368h-202v299h459zM710 664h-296v-145h296v145z" />
    <glyph glyph-name="cid1488" unicode="&#x4fc4;" 
d="M277 -41l-18 79q19 -2 37 -4t37 -2q33 0 33 36v140q-26 -10 -53.5 -17.5t-53.5 -16.5l-22 86q33 7 65 14.5t64 18.5v159h-126v81h126v80q-42 -15 -83 -26l-32 74q144 33 215 102l60 -51q-33 -34 -79 -62v-117h115q-2 55 -3.5 113t-1.5 122h77q0 -65 2 -123t4 -112h194
v-81h-191q3 -59 7.5 -110.5t11.5 -95.5q24 36 45.5 79t38.5 91l64 -35q-51 -138 -126 -234q27 -100 62 -105q20 4 48 135l64 -54q-48 -172 -112 -172q-51 0 -95 71q-8 15 -14.5 29t-11.5 31q-53 -46 -111 -77l-46 68q36 18 68.5 41.5t61.5 52.5q-9 35 -14 76q-7 45 -11 97.5
t-8 111.5h-118v-130q22 9 43 17.5t40 18.5v-83q-19 -9 -40 -18.5t-43 -18.5v-191q0 -88 -87 -88h-83zM119 417q-16 -23 -32 -44.5t-33 -42.5l-28 90q111 152 166 358l76 -36q-27 -93 -66 -181v-610h-83v466zM718 746q28 -30 54.5 -61t49.5 -65l-63 -47q-25 37 -49.5 70
t-48.5 61z" />
    <glyph glyph-name="cid1490" unicode="&#x4fca;" 
d="M682 735q50 -48 88 -88.5t64 -74.5l-68 -48q-18 27 -43 57q-109 -15 -211.5 -26t-200.5 -21l-15 72q92 34 183 174l89 -25q-68 -89 -134 -142q154 16 237 28q-14 14 -27 27.5t-26 27.5zM478 480q-36 -43 -81 -78t-100 -66l-49 65q104 55 174 127zM782 351
q-80 73 -178 135l53 53q40 -21 85 -53.5t99 -74.5zM398 209q-23 -16 -46 -30.5t-50 -27.5l-51 68q187 87 254 221l79 -18q-21 -45 -47 -82h217v-69q-34 -93 -121 -164q97 -49 227 -75l-32 -81q-163 34 -271 103q-56 -32 -124 -58t-150 -45l-41 76q145 29 245 78
q-53 47 -89 104zM561 150q35 25 61 54.5t43 62.5h-194q-4 -3 -13 -13q37 -58 103 -104zM136 423q-20 -24 -39.5 -47t-41.5 -46l-29 90q137 155 201 359l80 -39q-32 -99 -87 -193v-596h-84v472z" />
    <glyph glyph-name="cid1492" unicode="&#x4fcf;" 
d="M139 424q-17 -24 -37.5 -47.5t-43.5 -46.5l-26 89q133 153 197 354l79 -36q-17 -49 -37.5 -97t-46.5 -93v-596h-85v473zM618 768v-238h189v-470q0 -102 -96 -102h-102l-20 80l95 -4q40 0 40 45v65h-303v-193h-82v579h197v238h82zM421 217h303v80h-303v-80zM724 449h-303
v-80h303v80zM389 735q21 -32 40.5 -67.5t40.5 -76.5l-71 -36q-40 80 -82 145zM830 711q-20 -41 -43 -80t-53 -76l-66 34q29 40 51.5 78.5t38.5 77.5z" />
    <glyph glyph-name="cid1493" unicode="&#x4fd0;" 
d="M116 420q-15 -20 -30 -41t-31 -41l-29 90q108 148 158 342l77 -35q-13 -46 -29.5 -89.5t-35.5 -84.5v-600h-80v459zM384 540v98q-54 -8 -107 -13l-25 73q88 8 159.5 23.5t126.5 38.5l36 -67q-27 -11 -55.5 -20t-58.5 -17v-116h110v-81h-110v-41q30 -30 59 -64t58 -73
l-45 -65q-20 35 -38 64.5t-34 51.5v-375h-76v380q-52 -124 -134 -227l-36 87q112 116 164 262h-119v81h125zM621 -41l-17 79q25 -2 49 -4t47 -2q40 0 40 31v702h82v-722q0 -84 -92 -84h-109zM677 688v-544h-77v544h77z" />
    <glyph glyph-name="cid1495" unicode="&#x4fd7;" 
d="M745 322q-124 82 -192 197q-82 -120 -196 -197h388zM348 316q-28 -18 -53 -32l-46 72q183 95 280 245h50q80 -139 272 -245l-47 -72q-15 9 -28 17.5t-25 15.5v-362h-79v43h-246v-43h-78v361zM672 73v172h-246v-172h246zM641 762q107 -74 185 -150l-63 -61
q-65 73 -179 157zM502 706q-38 -49 -77 -90t-81 -75l-62 59q47 36 85 74.5t70 81.5zM138 420q-19 -24 -39.5 -46.5t-41.5 -45.5l-27 90q134 152 198 352l80 -37q-33 -102 -86 -191v-587h-84v465z" />
    <glyph glyph-name="cid1499" unicode="&#x4fdd;" 
d="M298 742q-15 -50 -34.5 -95.5t-43.5 -89.5v-606h-84v475q-20 -25 -40 -49t-43 -47l-28 89q65 78 113.5 167t79.5 193zM765 735v-295h-173v-78h247v-82h-172q68 -119 190 -210l-55 -74q-124 115 -204 284h-6v-328h-84v328h-8q-85 -183 -207 -285l-49 77q113 78 189 208
h-165v82h240v78h-172v295h429zM682 654h-262v-133h262v133z" />
    <glyph glyph-name="cid1502" unicode="&#x4fe1;" 
d="M127 420q-17 -23 -35.5 -45t-38.5 -45l-28 90q62 77 108 167t75 193l79 -37q-16 -51 -35 -97.5t-43 -93.5v-601h-82v469zM530 664q-8 23 -17.5 45t-21.5 41l81 23q14 -29 24.5 -56.5t18.5 -52.5h239v-79h-583v79h259zM778 530v-74h-425v74h425zM778 405v-75h-425v75h425z
M798 -48h-84v46h-300v-46h-81v322h465v-322zM714 77v119h-300v-119h300z" />
    <glyph glyph-name="cid1505" unicode="&#x4fe8;" 
d="M132 426q-19 -25 -38.5 -49t-39.5 -47l-28 88q66 78 112 166t77 190l72 -32q-28 -96 -75 -185v-606h-80v475zM826 740v-76h-159v-201h172v-75h-465v-134q-6 -191 -90 -303l-64 55q73 89 76 248v209h172v201h-156v76h514zM593 463v201h-51v-201h51zM803 629
q-9 -43 -21.5 -80t-28.5 -67l-62 21q16 29 27.5 64t23.5 77zM385 636q31 -59 56 -129l-60 -26q-13 38 -27.5 71.5t-31.5 62.5z" />
    <glyph glyph-name="cid1506" unicode="&#x4fe9;" 
d="M139 438q-18 -28 -39.5 -55.5t-44.5 -54.5l-26 88q120 154 176 358l77 -35q-14 -41 -28.5 -80t-31.5 -76v-632h-83v487zM834 722v-81h-162l-1 -107h145v-483q0 -92 -82 -92h-79l-22 81l74 -4q29 0 29 33v138l-37 -59q-16 39 -30 69t-25 54q-24 -107 -72 -189l-49 62
q13 23 23 50t18 57l-46 -45q-8 18 -15.5 36t-15.5 35q-12 -49 -30 -92t-41 -80l-43 56v-206h-78v579h147l1 107h-154v81h545zM657 354q40 -55 79 -120v223h-69q-3 -27 -3 -47zM568 265q8 39 15.5 83t9.5 92v17h-81l-2 -37q-4 -15 -5 -29.5t-3 -28.5q15 -18 30.5 -42.5
t35.5 -54.5zM596 534q1 26 1 52.5v54.5h-79q0 -30 -0.5 -56.5t-1.5 -50.5h80zM373 177q57 104 64 274v6h-64v-280z" />
    <glyph glyph-name="cid1509" unicode="&#x4fee;" 
d="M584 763q-10 -30 -23 -58h244v-72q-39 -80 -118 -139q36 -15 76.5 -27.5t86.5 -21.5l-32 -79q-124 30 -212 77q-91 -48 -217 -77l-32 74q51 11 93 24t79 30q-45 35 -72 76q-13 -10 -25 -20.5t-24 -19.5l-49 61q107 74 144 182zM511 625q34 -51 97 -91q68 43 105 95h-200
q-2 0 -2 -4zM289 738q-28 -98 -77 -187v-600h-80v473q-20 -24 -39 -47.5t-39 -46.5l-24 85q62 78 108 166t76 192zM348 612v-502h-77v502h77zM687 358q-49 -41 -103 -68q-26 -13 -63 -27t-85 -29l-40 66q70 14 133 42q27 12 51.5 25t47.5 29zM769 288q-110 -129 -319 -185
l-31 71q197 48 294 156zM382 21q152 39 244 91q94 54 161 139l60 -44q-62 -93 -180 -161q-61 -33 -122.5 -59t-126.5 -43z" />
    <glyph glyph-name="cid1510" unicode="&#x4fef;" 
d="M447 324q-12 -13 -23.5 -25t-23.5 -25l-24 76q45 53 77 113t53 129l75 -35q-23 -64 -55 -122v-480h-79v369zM707 468v107h82v-107h59v-79h-59v-348q0 -86 -88 -86h-83l-18 79q19 -3 37 -4.5t36 -1.5q34 0 34 33v328h-141v79h141zM597 774q9 -17 16.5 -38.5t15.5 -45.5
h209v-80h-462v-209q-3 -278 -83 -450l-65 56q63 144 67 394v289h246q-9 20 -17.5 37.5t-18.5 33.5zM612 343q18 -41 36 -83.5t36 -91.5l-67 -33q-17 50 -34 93t-36 83zM127 425q-17 -24 -35.5 -48t-38.5 -47l-28 90q117 153 176 359l77 -36q-14 -49 -31 -92t-38 -87v-613
h-82v474z" />
    <glyph glyph-name="cid1511" unicode="&#x4ff1;" 
d="M147 430q-22 -26 -44.5 -51t-46.5 -51l-29 91q143 155 208 355l78 -36q-30 -96 -82 -182v-605h-84v479zM770 208h83v-78h-180q46 -27 86.5 -58.5t76.5 -64.5l-54 -59q-42 39 -84.5 72.5t-85.5 63.5l41 46h-178l49 -44q-76 -79 -188 -139l-50 65q50 26 93 55t80 63h-182
v78h85v534h408v-534zM687 208v67h-243v-67h243zM687 344v63h-243v-63h243zM687 476v62h-243v-62h243zM687 606v64h-243v-64h243z" />
    <glyph glyph-name="cid15236" unicode="&#x5009;" 
d="M265 382v-24t-1 -25h380v49h-379zM644 500h-379v-51h379v51zM256 264q-2 -13 -4 -24.5t-4 -23.5h507v-264h-82v33h-347v-34h-83v249q-33 -137 -116 -246l-67 59q122 146 123 371v167q-24 -13 -48.5 -24t-50.5 -23l-47 74q104 41 198 88.5t177 102.5h66q84 -55 177 -102.5
t198 -88.5l-48 -74q-20 8 -40 18t-39 19v-277h-470zM673 57v88h-347v-88h347zM665 572q-62 31 -117 62t-103 63q-48 -32 -102.5 -63t-115.5 -62h195q-15 30 -35 57l69 34l28 -44t27 -47h154z" />
    <glyph glyph-name="cid15238" unicode="&#x500b;" 
d="M301 737q-16 -49 -35.5 -96t-46.5 -91v-599h-83v472q-18 -24 -38 -47t-41 -46l-27 87q68 77 115.5 164.5t81.5 190.5zM830 -46h-77v50h-367v-50h-76v789h520v-789zM753 79v590h-367v-590h367zM535 541v92h71v-92h117v-71h-117v-90h89v-259h-246v259h86v90h-119v71h119z
M628 316h-114v-130h114v130z" />
    <glyph glyph-name="cid1517" unicode="&#x500d;" 
d="M508 691q-7 20 -13 37.5t-15 33.5l85 14q7 -19 14.5 -40.5t13.5 -44.5h225v-82h-521v82h211zM414 449q-21 60 -50 115l79 28q16 -29 30 -64.5t26 -78.5h106q33 66 56 145l82 -29q-11 -33 -23 -61.5t-24 -54.5h145v-82h-579v82h152zM769 -45h-85v43h-268v-43h-85v347h438
v-347zM684 81v139h-268v-139h268zM126 419q-17 -23 -35.5 -45.5t-37.5 -43.5l-28 90q123 152 183 359l78 -37q-30 -100 -76 -188v-603h-84v468z" />
    <glyph glyph-name="cid15241" unicode="&#x5011;" 
d="M134 430q-19 -28 -37.5 -55.5t-39.5 -53.5l-28 93q108 153 162 364l77 -36q-10 -40 -23.5 -79.5t-29.5 -77.5v-628h-81v473zM370 454h80v76h-80v-76zM450 670h-80v-72h80v72zM659 453h87v77h-87v-77zM746 668h-87v-70h87v70zM529 383h-159v-427h-81v787h240v-360z
M577 382v361h247v-702q0 -79 -76 -79h-52.5t-52.5 1l-22 77q53 -3 100 -3q25 0 25 30v315h-169z" />
    <glyph glyph-name="cid1519" unicode="&#x5012;" 
d="M572 39q-76 -22 -154 -39t-163 -32l-19 79q32 6 65.5 11t65.5 11v150h-113v79h113v94h81v-94h109v-79h-109v-133q64 14 124 34v-81zM565 739v-76h-145q-19 -59 -35.5 -103.5t-30.5 -76.5q30 4 57.5 10t55.5 13q-9 21 -19 41t-21 40l62 38q29 -57 52 -105t39 -91l-62 -44
q-5 16 -11.5 30.5t-12.5 30.5q-55 -13 -113.5 -24t-121.5 -20l-20 71q23 3 32 8q23 34 66 182h-76v76h304zM643 -40l-18 80q23 -2 44.5 -4t40.5 -2q33 0 33 36v697h81v-717q0 -90 -85 -90h-96zM678 691v-546h-76v546h76zM119 424q-16 -23 -32 -47t-32 -47l-29 90
q52 77 89 166t60 192l76 -36q-21 -83 -52 -157v-634h-80v473z" />
    <glyph glyph-name="cid1521" unicode="&#x5018;" 
d="M604 770v-252h217v-465q0 -98 -91 -98h-75l-22 81l70 -4q36 0 36 38v367h-357v-486h-81v567h220v252h83zM679 369v-263h-237v263h237zM605 297h-87v-121h87v121zM824 701q-23 -48 -50 -88.5t-57 -75.5l-64 44q30 33 54.5 71.5t46.5 82.5zM395 727q39 -74 67 -153l-71 -33
q-17 45 -35.5 85.5t-37.5 75.5zM136 420q-18 -24 -38 -46.5t-41 -43.5l-27 89q134 153 199 357l80 -37q-18 -51 -38.5 -99.5t-46.5 -93.5v-595h-88v469z" />
    <glyph glyph-name="cid1522" unicode="&#x5019;" 
d="M278 738q-14 -48 -31.5 -93.5t-39.5 -90.5v-603h-79v471q-34 -49 -72 -94l-26 89q58 77 101.5 165t71.5 191zM341 609v-523h-78v523h78zM654 578v85h-245v74h327v-159h90v-74h-458v74h286zM473 356q-26 -44 -60 -82l-50 62q57 57 98 158l69 -17q-4 -13 -8.5 -24t-8.5 -23
h291v-74h-165q-3 -23 -5 -45t-5 -44h212v-73h-191q61 -98 203 -175l-55 -68q-138 96 -204 203q-66 -139 -222 -207l-53 67q76 29 128 73.5t78 106.5h-160v73h184q3 21 5.5 42.5t2.5 44.5v2h-84z" />
    <glyph glyph-name="cid1523" unicode="&#x501a;" 
d="M519 704q3 9 3.5 19t1.5 20v27h81v-27q0 -22 -3 -39h214v-79h-233l-6 -15q129 -36 235 -87l-47 -72q-56 30 -112 55t-114 45q-29 -33 -77.5 -59t-117.5 -44l-46 71q128 34 177 82q4 6 8.5 12t7.5 12h-178v79h206zM853 436v-79h-82v-319q0 -83 -91 -83h-110l-19 81
q26 -2 51.5 -4t49.5 -2q35 0 35 29v298h-422v79h588zM597 306v-226h-279v226h279zM518 240h-120v-92h120v92zM130 420q-17 -23 -36.5 -45t-38.5 -45l-29 90q128 153 190 358l79 -39q-16 -50 -36 -97.5t-45 -91.5v-599h-84v469z" />
    <glyph glyph-name="cid1525" unicode="&#x501f;" 
d="M139 430q-39 -53 -83 -104l-27 90q122 152 181 360l79 -37q-12 -45 -29.5 -87t-35.5 -84v-617h-85v479zM401 677v88h83v-88h144v88h82v-88h117v-76h-117v-92h137v-79h-581v79h135v92h-113v76h113zM628 509v92h-144v-92h144zM778 -42h-81v35h-275v-35h-81v419h437v-419z
M697 69v79h-275v-79h275zM697 222v80h-275v-80h275z" />
    <glyph glyph-name="cid1526" unicode="&#x5021;" 
d="M777 740v-336h-430v336h430zM695 535h-268v-59h268v59zM695 607v61h-268v-61h268zM823 -48h-84v33h-354v-34h-83v398h521v-397zM739 61v72h-354v-72h354zM739 207v68h-354v-68h354zM136 420q-20 -24 -40 -47t-43 -46l-28 91q136 154 204 361l79 -39q-17 -51 -38.5 -99.5
t-49.5 -94.5v-595h-84v469z" />
    <glyph glyph-name="cid1531" unicode="&#x502a;" 
d="M388 384h330v98h-139v75h139v100h-130v75h209v-422h-125v-225q0 -42 28 -42h34q19 0 25 17q6 9 9 33.5t6 68.5l80 -25q-6 -63 -14 -100t-20 -50q-26 -24 -70 -24h-75q-88 0 -88 105v242h-73q-11 -147 -49 -215q-47 -84 -158 -146l-54 67q95 51 135 116q17 29 27 72.5
t17 105.5h-123v400q93 21 180 64l49 -65q-32 -16 -68.5 -30.5t-81.5 -29.5v-91h134v-75h-134v-99zM128 420q-18 -24 -36.5 -46.5t-38.5 -43.5l-28 90q126 154 184 358l79 -39q-14 -48 -33.5 -94t-42.5 -91v-603h-84v469z" />
    <glyph glyph-name="cid15254" unicode="&#x502b;" 
d="M363 537q-20 -11 -40.5 -20.5t-39.5 -18.5l-45 72q177 74 273 197h72q81 -113 272 -197l-46 -71q-22 9 -41.5 19t-37.5 19v-39h-367v39zM668 574q-74 50 -122 110q-28 -31 -58.5 -58.5t-64.5 -51.5h245zM365 -45h-78v485h505v-399q0 -84 -78 -84h-76l-10 35h-57v184h-66
v-184h-71v184h-69v-221zM688 30q29 0 29 28v118h-74v-144zM717 365h-74v-114h74v114zM505 365v-114h66v114h-66zM365 365v-114h69v114h-69zM297 740q-15 -51 -36 -99.5t-47 -94.5v-595h-82v469q-37 -47 -76 -89l-29 89q132 155 191 359z" />
    <glyph glyph-name="cid1535" unicode="&#x503a;" 
d="M526 728v42h83v-42h212v-70h-212v-41h189v-65h-189v-41h244v-73h-574v73h247v41h-186v65h186v41h-212v70h212zM794 99h-82v223h-287v-229h-81v303h450v-297zM614 290q0 -106 -40 -182q-48 -97 -224 -160l-54 66q152 50 198 120q36 62 38 156h82zM628 118
q62 -21 117 -45.5t106 -54.5l-48 -71q-106 66 -220 106zM136 429l-40 -50t-43 -49l-28 90q65 77 112.5 166t77.5 193l79 -39q-30 -92 -74 -176v-613h-84v478z" />
    <glyph glyph-name="uni503C" unicode="&#x503c;" 
d="M620 763q-2 -18 -3 -35t-3 -35h212v-76h-221q-3 -16 -5 -30t-4 -30h174v-503h81v-76h-586v76h88v503h161q2 17 3.5 31t4.5 29h-219v76h226q3 21 4.5 42t3.5 39zM690 54v58h-256v-58h256zM690 180v56h-256v-56h256zM690 303v56h-256v-56h256zM690 426v56h-256v-56h256z
M149 438q-20 -28 -41 -55t-44 -53l-28 90q124 152 181 354l77 -35q-12 -43 -28 -83.5t-36 -78.5v-626h-81v487z" />
    </font>
</defs>
</svg>
