<?xml version="1.0" standalone="no"?>
<!DOCTYPE svg PUBLIC "-//W3C//DTD SVG 1.1//EN" "http://www.w3.org/Graphics/SVG/1.1/DTD/svg11.dtd" >
<svg>
<metadata>
Created by FontForge 20120731 at Wed Aug 21 21:17:31 2019
 By www
Copyright (c) 2015 DynaComware. All rights reserved.
</metadata>
<defs>
<font id="SFProPingFangSC-Regular" horiz-adv-x="887" >
  <font-face 
    font-family="PingFang SC"
    font-weight="400"
    font-stretch="normal"
    units-per-em="1000"
    panose-1="2 11 4 0 0 0 0 0 0 0"
    ascent="859"
    descent="-141"
    bbox="-52 -131 931 850"
    underline-thickness="52"
    underline-position="-107"
    unicode-range="U+000D-2F894"
  />
<missing-glyph 
 />
    <glyph glyph-name=".notdef" 
 />
    <glyph glyph-name=".null" horiz-adv-x="0" 
 />
    <glyph glyph-name="nonmarkingreturn" horiz-adv-x="333" 
 />
    <glyph glyph-name="cid1" horiz-adv-x="0" 
 />
    <glyph glyph-name="cid2" unicode="&#xd;" horiz-adv-x="295" 
 />
    <glyph glyph-name="cid98" horiz-adv-x="0" 
 />
    <glyph glyph-name="cid112" unicode="&#xad;" horiz-adv-x="295" 
d="M37 303h222v-60h-222v60z" />
    <glyph glyph-name="cid120" unicode="&#xb5;" horiz-adv-x="496" 
d="M126 503v-284q0 -127 117 -127q50 0 85 34q36 37 42 97v280h72v-460h-72v72q-14 -22 -30 -37.5t-31 -25.5q-34 -21 -79 -21q-69 0 -104 49v-211h-71v634h71z" />
    <glyph glyph-name="cid224" unicode="&#x138;" horiz-adv-x="469" 
d="M55 503h71v-213l230 213h93l-201 -186l221 -274h-91l-179 228l-73 -64v-164h-71v460z" />
    <glyph glyph-name="cid228" unicode="&#x140;" horiz-adv-x="324" 
d="M266 402q19 0 29 -11q12 -12 12 -29q0 -15 -12 -29q-11 -11 -29 -11q-14 0 -28 11q-10 12 -10 29q0 18 10 29q12 11 28 11zM139 689v-646h-70v646h70z" />
    <glyph glyph-name="cid233" unicode="&#x149;" horiz-adv-x="581" 
d="M90 689l-17 -167h-56l2 167h71zM356 515q170 0 170 -190v-282h-70v278q0 133 -121 133q-49 0 -83 -34q-35 -36 -42 -99v-278h-71v460h71v-68q26 38 62 59q40 21 84 21z" />
    <glyph glyph-name="cid234" unicode="&#x14a;" horiz-adv-x="633" 
d="M139 677l357 -511h3v511h73v-687q0 -121 -129 -121h-51v58h45q62 0 62 66v54l-362 517h-2v-521h-74v634h78z" />
    <glyph glyph-name="cid235" unicode="&#x14b;" horiz-adv-x="495" 
d="M270 515q171 0 171 -190v-335q0 -121 -129 -121h-42v58h37q62 0 62 66v328q0 133 -119 133q-48 0 -83 -34q-38 -38 -41 -99v-278h-71v460h71v-68q24 38 61 59q39 21 83 21z" />
    <glyph glyph-name="cid262" unicode="&#x17f;" horiz-adv-x="331" 
d="M326 677v-62h-78q-31 0 -44 -14t-13 -48v-510h-70v400h-117v60h117v51q0 58 28 90q31 33 89 33h88z" />
    <glyph glyph-name="cid274" unicode="&#x2bb;" horiz-adv-x="443" 
d="M283 739q-34 -12 -56 -39q-20 -24 -20 -59q5 3 20 3q23 0 37 -15q16 -17 16 -40q0 -22 -15 -38q-17 -17 -41 -17q-31 0 -49 26q-18 23 -18 62q0 59 34 102q35 45 92 59v-44z" />
    <glyph glyph-name="cid278" unicode="&#x2c9;" horiz-adv-x="443" 
d="M89 799h265v-44h-265v44z" />
    <glyph glyph-name="cid425" unicode="&#x2ca;" horiz-adv-x="443" 
d="M227 842h80l-122 -129h-49z" />
    <glyph glyph-name="cid426" unicode="&#x2cb;" horiz-adv-x="443" 
d="M136 842h81l90 -129h-48z" />
    <glyph glyph-name="cid29219" unicode="&#x2cd;" horiz-adv-x="443" 
d="M80 -21h284v-59h-284v59z" />
    <glyph glyph-name="cid285" unicode="&#x2ee;" horiz-adv-x="443" 
d="M309 784q28 0 48 -24q18 -25 18 -63q0 -57 -35 -103q-34 -42 -90 -59v45q15 6 29 16t26 22q19 27 19 60q-6 -2 -18 -2q-24 0 -40 15q-15 17 -15 38q0 25 15 40q17 15 43 15zM134 784q28 0 48 -24q17 -24 17 -63q0 -59 -35 -103q-34 -42 -91 -59v45q32 10 55 38
q11 14 16 28.5t5 31.5q-8 -2 -20 -2q-25 0 -37 15q-15 15 -15 38q0 26 16 40q13 15 41 15z" />
    <glyph glyph-name="cid311" unicode="&#x338;" horiz-adv-x="443" 
d="M353 514l32 -20l-293 -464l-35 22z" />
    <glyph glyph-name="cid312" unicode="&#x340;" horiz-adv-x="443" 
d="M136 684h81l90 -130h-48z" />
    <glyph glyph-name="cid313" unicode="&#x341;" horiz-adv-x="443" 
d="M227 684h80l-122 -130h-49z" />
    <glyph glyph-name="cid314" unicode="&#x344;" horiz-adv-x="443" 
d="M356 814l-121 -130h-50l89 130h82zM301 648q17 0 29 -12q11 -13 11 -29t-11 -29q-13 -11 -29 -11q-18 0 -29 11q-10 11 -10 29q0 17 10 29q11 12 29 12zM142 648q18 0 30 -12q11 -11 11 -29t-11 -29q-13 -11 -30 -11t-28 11t-11 29t11 29q11 12 28 12z" />
    <glyph glyph-name="cid539" unicode="&#x2010;" horiz-adv-x="295" 
d="M37 393h222v-60h-222v60z" />
    <glyph glyph-name="cid325" unicode="&#x2015;" 
d="M0 397h887v-69h-887v69z" />
    <glyph glyph-name="cid540" unicode="&#x2016;" horiz-adv-x="443" 
d="M95 732h44v-738h-44v738zM305 732h43v-738h-43v738z" />
    <glyph glyph-name="cid326" unicode="&#x2018;" horiz-adv-x="301" 
d="M229 739q-37 -12 -56 -39q-21 -28 -21 -59q5 3 21 3q21 0 37 -15q17 -17 17 -40t-17 -38q-16 -17 -42 -17q-30 0 -47 26q-18 24 -18 62q0 59 34 102q33 45 92 59v-44z" />
    <glyph glyph-name="cid327" unicode="&#x2019;" horiz-adv-x="301" 
d="M132 784q28 0 48 -24q17 -24 17 -63q0 -59 -35 -103q-34 -42 -91 -59v45q34 11 55 38t21 60q-8 -2 -20 -2q-23 0 -38 15q-16 17 -16 38q0 26 15 40q16 15 44 15z" />
    <glyph glyph-name="cid329" unicode="&#x201c;" horiz-adv-x="476" 
d="M404 739q-37 -12 -57 -39q-18 -24 -18 -59q4 3 18 3q25 0 40 -15q14 -18 14 -40q0 -24 -16 -38q-17 -17 -41 -17q-30 0 -49 26q-17 24 -17 62q0 59 34 102q34 45 92 59v-44zM229 739q-37 -12 -56 -39q-21 -28 -21 -59q5 3 21 3q21 0 37 -15q17 -17 17 -40t-17 -38
q-16 -17 -42 -17q-30 0 -47 26q-18 24 -18 62q0 59 34 102q33 45 92 59v-44z" />
    <glyph glyph-name="cid330" unicode="&#x201d;" horiz-adv-x="476" 
d="M306 784q29 0 49 -24q17 -24 17 -63q0 -59 -35 -103q-34 -42 -91 -59v45q36 11 56 38q19 26 19 60q-7 -2 -19 -2q-23 0 -38 15q-15 17 -15 38q0 25 16 40q14 15 41 15zM132 784q28 0 48 -24q17 -24 17 -63q0 -59 -35 -103q-34 -42 -91 -59v45q34 11 55 38t21 60
q-8 -2 -20 -2q-23 0 -38 15q-16 17 -16 38q0 26 15 40q16 15 44 15z" />
    <glyph glyph-name="cid29220" unicode="&#x2027;" horiz-adv-x="443" 
d="M222 428q26 0 44 -20q20 -18 20 -45q0 -26 -20 -46q-20 -18 -44 -18q-25 0 -46 18q-19 20 -19 46q0 27 19 45q20 20 46 20z" />
    <glyph glyph-name="cid544" unicode="&#x2035;" horiz-adv-x="443" 
d="M136 842h81l90 -129h-48z" />
    <glyph glyph-name="cid545" unicode="&#x203b;" 
d="M443 690q24 0 40 -14q15 -18 15 -40t-15 -36q-16 -15 -40 -15q-23 0 -38 15q-15 14 -15 36q0 24 15 40q15 14 38 14zM443 407l221 220l43 -44l-219 -220l219 -220l-43 -46l-221 220l-219 -220l-44 46l219 220l-219 220l44 44zM171 417q23 0 38 -15q16 -14 16 -37
q0 -21 -16 -39q-17 -14 -38 -14t-38 14q-17 19 -17 39q0 24 17 37q15 15 38 15zM714 417q25 0 41 -15q15 -14 15 -37q0 -21 -15 -39q-19 -14 -41 -14q-19 0 -37 14q-15 17 -15 39q0 24 15 37q15 15 37 15zM443 144q24 0 40 -14q15 -15 15 -38q0 -21 -15 -38q-18 -15 -40 -15
q-21 0 -38 15q-15 16 -15 38q0 24 15 38t38 14z" />
    <glyph glyph-name="cid546" unicode="&#x2103;" horiz-adv-x="818" 
d="M128 780q46 0 78 -33q32 -34 32 -78t-32 -77q-32 -31 -78 -31q-45 0 -76 31q-32 32 -32 77q0 46 32 78q31 33 76 33zM128 738q-27 0 -47 -19q-21 -19 -21 -50q0 -28 21 -47q21 -21 47 -21t49 21q20 21 20 47q0 28 -20 50q-21 19 -49 19zM510 689q106 0 176 -56
q71 -54 85 -150h-70q-14 69 -68 106q-50 36 -125 36q-110 0 -171 -78q-55 -73 -55 -190q0 -119 54 -187q60 -74 170 -74q77 0 128 41q58 41 76 124h70q-21 -112 -100 -171q-72 -59 -174 -59q-146 0 -226 98q-71 88 -71 228q0 141 73 232q78 100 228 100z" />
    <glyph glyph-name="cid548" unicode="&#x2109;" horiz-adv-x="766" 
d="M128 780q46 0 78 -33q32 -34 32 -78t-32 -77q-32 -31 -78 -31q-45 0 -76 31q-32 32 -32 77q0 46 32 78q31 33 76 33zM128 738q-27 0 -47 -19q-21 -19 -21 -50q0 -28 21 -47q21 -21 47 -21t49 21q20 21 20 47q0 28 -20 50q-21 19 -49 19zM729 677v-64h-344v-212h323v-63
h-323v-295h-74v634h418z" />
    <glyph glyph-name="cid365" unicode="&#x2126;" horiz-adv-x="651" 
d="M324 689q132 0 211 -89q79 -86 79 -217q0 -187 -147 -276h145v-64h-228v72q77 44 114 99q21 33 32.5 76t11.5 94q0 104 -63 173q-64 68 -155 68t-152 -68q-62 -67 -62 -173q0 -105 43 -170q37 -55 114 -99v-72h-229v64h146q-147 88 -147 276q0 132 78 217q79 89 209 89z
" />
    <glyph glyph-name="cid366" unicode="&#x212b;" horiz-adv-x="582" 
d="M291 850q29 0 53 -22q23 -22 23 -54q0 -30 -23 -53q-24 -21 -53 -21t-53 21q-23 23 -23 53q0 32 23 54q24 22 53 22zM291 820q-19 0 -32 -13t-13 -33q0 -18 13 -31q15 -12 32 -12q18 0 32 12q8 5 10.5 14t2.5 17q0 21 -13 33q-13 13 -32 13zM333 677l249 -634h-79
l-67 178h-290l-68 -178h-78l250 634h83zM413 281l-119 318h-5l-121 -318h245z" />
    <glyph glyph-name="cid367" unicode="&#x212e;" horiz-adv-x="719" 
d="M359 609q133 0 222 -85q91 -87 91 -212v-18h-524v-155q36 -46 91 -70q26 -11 56.5 -17.5t63.5 -6.5q84 0 151 39q62 37 104 110h36q-41 -87 -116 -135q-80 -48 -175 -48q-133 0 -221 82q-92 85 -92 217q0 130 92 216q88 83 221 83zM359 575q-65 0 -120 -24t-91 -71v-153
h423v153q-37 47 -92 71t-120 24z" />
    <glyph glyph-name="cid550" unicode="&#x2160;" 
d="M408 677h71v-634h-71v634z" />
    <glyph glyph-name="cid551" unicode="&#x2161;" 
d="M290 677h74v-634h-74v634zM524 677h73v-634h-73v634z" />
    <glyph glyph-name="cid552" unicode="&#x2162;" 
d="M179 677h72v-634h-72v634zM408 677h71v-634h-71v634zM636 677h72v-634h-72v634z" />
    <glyph glyph-name="cid553" unicode="&#x2163;" 
d="M109 677h73v-634h-73v634zM274 677h79l182 -548h1l178 548h82l-219 -634h-86z" />
    <glyph glyph-name="cid554" unicode="&#x2164;" 
d="M164 677h80l199 -555h2l198 555h80l-234 -634h-90z" />
    <glyph glyph-name="cid555" unicode="&#x2165;" 
d="M92 677h80l181 -548v0l182 548h79l-218 -634h-87zM705 677h73v-634h-73v634z" />
    <glyph glyph-name="cid556" unicode="&#x2166;" 
d="M30 677h80l158 -534h2l160 534h78l-199 -634h-79zM573 677h73v-634h-73v634zM747 677h71v-634h-71v634z" />
    <glyph glyph-name="cid557" unicode="&#x2167;" 
d="M20 677h76l126 -522h2l124 522h77l-163 -634h-80zM480 677h70v-634h-70v634zM625 677h71v-634h-71v634zM769 677h70v-634h-70v634z" />
    <glyph glyph-name="cid558" unicode="&#x2168;" 
d="M94 677h78v-634h-78v634zM275 677h89l172 -247l171 247h90l-218 -304l234 -330h-90l-187 271l-190 -271h-88l233 330z" />
    <glyph glyph-name="cid559" unicode="&#x2169;" 
d="M183 677h89l171 -247l172 247h88l-216 -304l234 -330h-89l-189 272l-189 -272h-89l234 330z" />
    <glyph glyph-name="cid560" unicode="&#x216a;" 
d="M90 677h90l172 -247l171 247h89l-217 -304l234 -330h-89l-188 272l-189 -272h-90l234 330zM714 677h78v-634h-78v634z" />
    <glyph glyph-name="cid561" unicode="&#x216b;" 
d="M37 677h91l142 -241l142 241h90l-188 -309l197 -325h-89l-152 255l-151 -255h-89l197 325zM577 677h77v-634h-77v634zM751 677h76v-634h-76v634z" />
    <glyph glyph-name="cid562" unicode="&#x2170;" 
d="M443 676q24 0 40 -16q15 -15 15 -37q0 -21 -15 -38q-16 -15 -40 -15q-23 0 -38 15t-15 38t15 37q15 16 38 16zM478 503v-460h-70v460h70z" />
    <glyph glyph-name="cid563" unicode="&#x2171;" 
d="M328 676q24 0 38 -16q15 -14 15 -37t-16 -38q-15 -15 -37 -15q-23 0 -39 15q-15 16 -15 38q0 23 15 37q16 16 39 16zM560 676q23 0 38 -16q16 -14 16 -37t-16 -38q-15 -15 -38 -15t-38 15q-16 15 -16 38t16 37q15 16 38 16zM363 503v-460h-72v460h72zM595 503v-460h-71
v460h71z" />
    <glyph glyph-name="cid564" unicode="&#x2172;" 
d="M228 676q24 0 38 -16q16 -14 16 -37t-17 -38q-14 -15 -37 -15t-38 15t-15 38t15 37q15 16 38 16zM443 676q24 0 40 -16q15 -15 15 -37q0 -21 -15 -38q-16 -15 -40 -15q-23 0 -38 15t-15 38t15 37q15 16 38 16zM660 676q23 0 39 -16q14 -15 14 -37q0 -21 -14 -38
q-16 -15 -39 -15q-22 0 -39 15q-16 16 -16 38q0 23 16 37q17 16 39 16zM263 503v-460h-71v460h71zM478 503v-460h-70v460h70zM696 503v-460h-71v460h71z" />
    <glyph glyph-name="cid565" unicode="&#x2173;" 
d="M191 676q23 0 38 -16q15 -14 15 -37q0 -22 -15 -38q-15 -15 -38 -15q-24 0 -39 15q-16 16 -16 38q0 23 16 37q15 16 39 16zM227 503v-460h-71v460h71zM410 503l132 -370l131 370h78l-174 -460h-72l-172 460h77z" />
    <glyph glyph-name="cid566" unicode="&#x2174;" 
d="M235 503h77l131 -371l131 371h78l-173 -460h-71z" />
    <glyph glyph-name="cid567" unicode="&#x2175;" 
d="M214 503l131 -370l132 370h77l-173 -460h-72l-173 460h78zM697 676q24 0 38 -16q16 -14 16 -37t-17 -38q-14 -15 -37 -15t-37 15q-16 15 -16 38q0 25 16 37q14 16 37 16zM732 503v-460h-71v460h71z" />
    <glyph glyph-name="cid568" unicode="&#x2176;" 
d="M584 676q23 0 38 -16q16 -14 16 -37t-16 -38q-15 -15 -38 -15t-38 15q-17 16 -17 38q0 23 17 37q15 16 38 16zM765 676q23 0 38 -16q15 -14 15 -37t-16 -38q-15 -15 -37 -15q-23 0 -39 15q-15 15 -15 38t15 37q16 16 39 16zM124 503l130 -370l133 370h77l-174 -460h-72
l-172 460h78zM619 503v-460h-70v460h70zM800 503v-460h-70v460h70z" />
    <glyph glyph-name="cid569" unicode="&#x2177;" 
d="M491 676q23 0 37 -16q15 -15 15 -37q0 -21 -15 -38q-14 -15 -37 -15q-22 0 -37 15t-15 38t15 37q15 16 37 16zM640 676q21 0 36 -16q15 -14 15 -37t-15 -38t-36 -15q-23 0 -37 15q-16 16 -16 38q0 23 16 37q14 16 37 16zM786 676q23 0 38 -16q14 -15 14 -37
q0 -21 -14 -38q-15 -15 -38 -15t-36 15q-16 15 -16 38t16 37q13 16 36 16zM109 503l109 -364l111 364h75l-152 -460h-69l-150 460h76zM526 503v-460h-68v460h68zM673 503v-460h-68v460h68zM821 503v-460h-68v460h68z" />
    <glyph glyph-name="cid570" unicode="&#x2178;" 
d="M189 676q24 0 39 -16q14 -14 14 -37t-14 -38q-15 -15 -39 -15t-37 15q-16 15 -16 38q0 25 16 37q13 16 37 16zM225 503v-460h-72v460h72zM418 503l119 -164l117 164h84l-163 -216l182 -244h-84l-136 192l-138 -192h-85l182 244l-162 216h84z" />
    <glyph glyph-name="cid571" unicode="&#x2179;" 
d="M242 503h82l120 -164l118 164h83l-162 -216l182 -244h-84l-137 192l-137 -192h-83l180 244z" />
    <glyph glyph-name="cid375" unicode="&#x2206;" horiz-adv-x="592" 
d="M255 677h81l245 -634h-571zM296 585l-184 -476h367z" />
    <glyph glyph-name="cid593" unicode="&#x2236;" horiz-adv-x="443" 
d="M222 677q24 0 39 -16q15 -15 15 -36q0 -13 -4.5 -21t-10.5 -18q-18 -14 -39 -14t-39 14q-15 16 -15 39t15 36q15 16 39 16zM222 149q24 0 39 -15t15 -38q0 -20 -15 -37q-18 -16 -39 -16t-39 16q-15 14 -15 37q0 24 15 38q15 15 39 15z" />
    <glyph glyph-name="cid388" unicode="&#x22c5;" horiz-adv-x="305" 
d="M152 428q25 0 45 -20q18 -17 18 -43q0 -27 -18 -47q-18 -18 -45 -18q-26 0 -45 18q-19 22 -19 47t19 43q20 20 45 20z" />
    <glyph glyph-name="cid8004" unicode="&#x9f99;" 
d="M549 -32q-74 0 -74 84v39q-37 -23 -74.5 -40t-78.5 -33l-36 54q106 37 189 94v346h-111q-6 -48 -14 -91t-17 -83q-55 -231 -254 -379l-42 51q173 131 231 332q10 38 17.5 80t12.5 90h-242v63h250q3 45 5 93t2 101h63q0 -53 -2 -101t-6 -93h469v-63h-299v-296
q104 94 173 226l57 -30q-92 -174 -230 -279v-68q0 -38 31 -38h151q23 0 35 19q13 24 18 142l60 -21q-10 -141 -34 -173q-21 -26 -68 -26h-182zM570 770q97 -62 166 -125l-42 -44q-32 30 -73 62.5t-94 65.5z" />
    <glyph glyph-name="cid8004" unicode="&#x2ef0;" 
d="M549 -32q-74 0 -74 84v39q-37 -23 -74.5 -40t-78.5 -33l-36 54q106 37 189 94v346h-111q-6 -48 -14 -91t-17 -83q-55 -231 -254 -379l-42 51q173 131 231 332q10 38 17.5 80t12.5 90h-242v63h250q3 45 5 93t2 101h63q0 -53 -2 -101t-6 -93h469v-63h-299v-296
q104 94 173 226l57 -30q-92 -174 -230 -279v-68q0 -38 31 -38h151q23 0 35 19q13 24 18 142l60 -21q-10 -141 -34 -173q-21 -26 -68 -26h-182zM570 770q97 -62 166 -125l-42 -44q-32 30 -73 62.5t-94 65.5z" />
    <glyph glyph-name="cid7771" unicode="&#x9ad8;" 
d="M456 773q6 -17 13.5 -37t13.5 -43h351v-58h-782v58h363q-6 20 -14 36l-16 32zM618 -42l-15 57l71 -2q55 0 55 43v241h-571v-342h-62v398h694v-312q0 -83 -98 -83h-74zM691 578v-173h-495v173h495zM629 528h-370v-72h370v72zM618 240v-178h-348v178h348zM562 191h-234v-81
h234v81z" />
    <glyph glyph-name="cid7771" unicode="&#x2fbc;" 
d="M456 773q6 -17 13.5 -37t13.5 -43h351v-58h-782v58h363q-6 20 -14 36l-16 32zM618 -42l-15 57l71 -2q55 0 55 43v241h-571v-342h-62v398h694v-312q0 -83 -98 -83h-74zM691 578v-173h-495v173h495zM629 528h-370v-72h370v72zM618 240v-178h-348v178h348zM562 191h-234v-81
h234v81z" />
    <glyph glyph-name="cid821" unicode="&#x3001;" horiz-adv-x="561" 
d="M145 167q52 -34 102 -87q23 -23 42 -46t35 -46l-45 -37q-31 42 -75 90q-25 27 -49.5 48.5t-49.5 41.5z" />
    <glyph glyph-name="cid822" unicode="&#x3002;" horiz-adv-x="552" 
d="M217 170q48 0 81 -32q33 -31 33 -80q0 -46 -33 -79q-35 -31 -81 -31q-48 0 -83 31q-33 29 -33 79t33 80q34 32 83 32zM217 123q-28 0 -47 -18q-21 -18 -21 -47q0 -28 21 -45q19 -20 47 -20q26 0 46 20q21 21 21 45q0 26 -21 47q-20 18 -46 18z" />
    <glyph glyph-name="cid824" unicode="&#x3005;" 
d="M443 743q-18 -54 -37.5 -103.5t-42.5 -93.5h408v-50q-88 -219 -255 -340q86 -70 156 -142l-47 -47q-60 65 -140 133t-184 143l43 43q34 -23 64 -45.5t59 -45.5q149 106 232 287h-370q-71 -122 -168 -206l-46 42q181 178 267 441z" />
    <glyph glyph-name="cid829" unicode="&#x300a;" horiz-adv-x="662" 
d="M409 778l58 -26l-174 -389l172 -389l-56 -25l-182 414zM553 778l55 -26l-172 -389l172 -389l-55 -25l-182 414z" />
    <glyph glyph-name="cid830" unicode="&#x300b;" horiz-adv-x="663" 
d="M109 778l181 -415l-181 -414l-56 25l173 389l-173 389zM252 778l183 -415l-183 -414l-55 25l171 389l-174 389z" />
    <glyph glyph-name="cid831" unicode="&#x300c;" horiz-adv-x="597" 
d="M286 778h284v-61h-219v-483h-65v544z" />
    <glyph glyph-name="cid832" unicode="&#x300d;" horiz-adv-x="595" 
d="M246 493h64v-544h-284v59h220v485z" />
    <glyph glyph-name="cid1246" unicode="&#x4e00;" 
d="M45 401h796v-63h-796v63z" />
    <glyph glyph-name="cid1247" unicode="&#x4e01;" 
d="M826 704v-61h-343v-591q0 -90 -90 -90h-139l-14 63q69 -4 132 -4q47 0 47 47v575h-358v61h765z" />
    <glyph glyph-name="cid1248" unicode="&#x4e03;" 
d="M841 497l-440 -81v-345q0 -32 30 -32h259q31 0 44 21t18 141l61 -18q-8 -144 -31 -177q-21 -28 -82 -28h-285q-79 0 -79 84v342l-286 -53l-8 61l294 56v295h65v-283l431 77z" />
    <glyph glyph-name="cid1249" unicode="&#x4e07;" 
d="M832 708v-62h-457v-38q-1 -41 -3 -78.5t-6 -73.5h382q-2 -351 -30 -421q-34 -69 -108 -69q-54 0 -127 3l-16 61q38 -1 70.5 -2t57.5 -2q55 3 72 62q13 59 17 309h-325q-9 -61 -23.5 -114t-34.5 -97q-69 -148 -224 -229l-35 56q150 81 211 222q54 141 59 373v38h-257v62
h777z" />
    <glyph glyph-name="cid1250" unicode="&#x4e08;" 
d="M506 617v150h65v-150h261v-63h-263q-9 -113 -37.5 -203.5t-79.5 -160.5q154 -114 401 -178l-32 -57q-127 34 -228.5 80.5t-180.5 106.5q-118 -115 -339 -186l-36 55q217 69 323 173q-142 126 -190 299l56 20q48 -160 176 -273q88 126 101 324h-444v63h447z" />
    <glyph glyph-name="cid1251" unicode="&#x4e09;" 
d="M109 701h670v-63h-670v63zM168 394h552v-62h-552v62zM44 65h799v-62h-799v62z" />
    <glyph glyph-name="cid1252" unicode="&#x4e0a;" 
d="M368 768h67v-273h328v-64h-328v-378h403v-63h-789v63h319v715z" />
    <glyph glyph-name="cid1253" unicode="&#x4e0b;" 
d="M837 721v-63h-385v-134q164 -81 335 -191l-37 -57q-179 118 -298 181v-503h-64v704h-339v63h788z" />
    <glyph glyph-name="cid1255" unicode="&#x4e0d;" 
d="M821 722v-63h-291q-25 -57 -54 -105v-600h-65v505q-64 -78 -145 -146.5t-183 -128.5l-41 54q301 173 418 421h-393v63h754zM588 483q77 -60 140 -120.5t116 -120.5l-48 -51q-48 60 -111 121.5t-143 127.5z" />
    <glyph glyph-name="cid1256" unicode="&#x4e0e;" 
d="M298 767l-12 -117h488v-61h-494l-16 -144h509q0 -364 -48 -424q-48 -55 -199 -55q-24 0 -49 0.5t-52 1.5l-16 59q37 -2 62 -3.5t41 -1.5q140 0 167 51q29 53 29 311h-517l44 387zM605 241v-63h-517v63h517z" />
    <glyph glyph-name="cid1258" unicode="&#x4e11;" 
d="M649 667h-273l-31 -263h283zM282 404l30 263h-196v62h598l-48 -686h170v-61h-786v61h189l35 300h-140v61h148zM305 43h293l24 300h-283z" />
    <glyph glyph-name="cid1259" unicode="&#x4e13;" 
d="M298 498q9 28 15 54.5t13 55.5h-221v59h235q5 27 10.5 54t11.5 53l65 -5q-5 -26 -9.5 -52t-9.5 -50h381v-59h-396q-6 -30 -12.5 -57t-13.5 -53h474v-62h-491q-9 -32 -19 -61t-19 -57h422v-54q-66 -100 -199 -199q39 -14 77.5 -30.5t74.5 -32.5l-35 -56
q-101 48 -203.5 86.5t-208.5 67.5l34 50q100 -28 192 -59q61 40 109 82.5t84 85.5h-439q17 43 31.5 87t30.5 90h-236v62h252z" />
    <glyph glyph-name="cid1260" unicode="&#x4e14;" 
d="M251 451v-170h387v170h-387zM638 512v160h-387v-160h387zM251 222v-174h387v174h-387zM49 48h137v685h516v-685h135v-63h-788v63z" />
    <glyph glyph-name="cid1262" unicode="&#x4e16;" 
d="M44 557h113v201h65v-201h180v209h64v-209h179v209h63v-209h134v-61h-134v-279h-306v279h-180v-442h590v-64h-655v506h-113v61zM466 496v-218h179v218h-179z" />
    <glyph glyph-name="cid1263" unicode="&#x4e18;" 
d="M235 57h321v337h-321v-337zM831 57v-64h-774v64h113v603q152 17 277.5 41.5t224.5 56.5l31 -57q-103 -31 -219.5 -54t-248.5 -39v-152h554v-62h-169v-337h211z" />
    <glyph glyph-name="cid1264" unicode="&#x4e19;" 
d="M431 338q-57 -141 -181 -228l-48 42q162 108 199 320h-233v-517h-63v578h305q3 31 3 65v62h-363v62h786v-62h-359v-62q-1 -17 -1.5 -32.5t-2.5 -32.5h309v-473q0 -99 -86 -99h-107l-16 63l102 -3q45 0 45 52v399h-253q-5 -22 -9 -42t-10 -38q128 -92 231 -212l-35 -55
q-107 131 -213 213z" />
    <glyph glyph-name="cid1265" unicode="&#x4e1a;" 
d="M380 759v-705h125v705h65v-705h266v-62h-786v62h264v705h66zM812 581q-54 -230 -134 -405l-58 21q39 79 72.5 179t62.5 222zM127 600q34 -91 66 -193.5t58 -218.5l-59 -16q-47 211 -119 409z" />
    <glyph glyph-name="cid1266" unicode="&#x4e1b;" 
d="M833 54v-63h-778v63h778zM289 745q0 -74 -3.5 -138.5t-11.5 -121.5q49 -49 91.5 -97t76.5 -98l-46 -46q-27 44 -60 87t-73 89l-3 -20q-38 -183 -176 -304l-39 48q114 104 154 262q28 132 28 339h62zM630 760q0 -62 -2.5 -116.5t-8.5 -105.5q31 -124 83.5 -222t128.5 -171
l-41 -48q-124 128 -192 317l-1 -10q-41 -188 -190 -311l-42 49q129 106 172 269q32 140 33 349h60z" />
    <glyph glyph-name="cid1267" unicode="&#x4e1c;" 
d="M288 660q13 29 24.5 57.5t23.5 60.5l64 -15q-11 -26 -21.5 -51.5t-21.5 -51.5h453v-61h-480q-66 -126 -140 -219h240v130h64v-130h280v-59h-280v-283q0 -81 -84 -81h-93l-12 62q21 -2 41.5 -3t41.5 -1q42 0 42 39v267h-307l-16 56q41 43 79 98t73 124h-190v61h219z
M300 211q-87 -119 -217 -211l-40 53q125 84 212 198zM640 251q119 -103 202 -210l-46 -46q-38 52 -87 104.5t-112 111.5z" />
    <glyph glyph-name="cid1268" unicode="&#x4e1d;" 
d="M836 54v-61h-786v61h786zM326 732q-84 -171 -169 -274q73 6 152 17q12 23 25.5 47.5t30.5 51.5l58 -20q-118 -210 -237 -332q63 6 121 14t113 19l12 -58q-76 -12 -160.5 -22.5t-177.5 -17.5l-12 61q80 34 189 199q-86 -12 -177 -21l-15 57q13 5 25 23q48 62 87.5 132
t73.5 149zM703 733q-42 -88 -84.5 -156t-83.5 -119q36 3 74.5 7.5t76.5 9.5q13 23 26.5 46.5t27.5 48.5l61 -19q-118 -211 -233 -328q63 6 123.5 13.5t116.5 17.5l13 -58q-154 -24 -345 -37l-11 60q80 34 185 198l-179 -21l-15 56q14 7 26 24q91 122 161 281z" />
    <glyph glyph-name="cid14992" unicode="&#x4e1f;" 
d="M798 732v-62h-321v-132h287v-59h-287v-126h365v-63h-473q-86 -175 -154 -252q115 8 225.5 19t223.5 27q-42 58 -93 120l49 31q116 -140 182 -246l-51 -38q-12 19 -24.5 38t-24.5 39q-261 -34 -568 -51l-13 57q3 1 6 2.5t6 2.5q66 46 173 251h-260v63h366v126h-288v59h288
v132h-323v62h709z" />
    <glyph glyph-name="cid14994" unicode="&#x4e21;" 
d="M49 664v63h788v-63h-361v-102h324v-508q0 -86 -82 -86h-92l-18 62l89 -3q39 0 39 42v431h-260v-310h118v221h61v-279h-422v275h62v-217h116v310h-261v-534h-63v596h324v102h-362z" />
    <glyph glyph-name="cid1270" unicode="&#x4e22;" 
d="M785 704q-66 -15 -143 -25.5t-165 -17.5v-123h287v-59h-287v-126h365v-63h-473q-91 -179 -156 -252q115 8 226 19t223 27q-43 58 -92 120l49 31q116 -140 182 -246l-53 -38q-10 19 -22.5 38t-25.5 39q-261 -34 -570 -51l-14 57q6 1 8.5 2.5t4.5 2.5q67 46 177 251h-260
v63h366v126h-288v59h288v119q-70 -3 -145 -5.5t-157 -2.5l-20 55q201 0 366.5 13.5t298.5 39.5z" />
    <glyph glyph-name="cid1271" unicode="&#x4e24;" 
d="M835 728v-64h-239v-137h196v-475q0 -90 -78 -90h-89l-17 64l88 -4q34 0 34 43v399h-137q-1 -18 -2.5 -36t-3.5 -35q31 -47 61.5 -98.5t62.5 -109.5l-39 -59q-28 64 -52 114t-44 85q-33 -153 -115 -241l-47 41q107 111 121 339h-189q-3 -46 -10 -86q27 -33 52 -70.5
t51 -78.5l-35 -54q-24 46 -43.5 81.5t-36.5 61.5q-30 -132 -105 -213l-47 42q100 105 115 317h-130v-505h-63v568h195v137h-237v64h783zM536 527v137h-188v-137h188z" />
    <glyph glyph-name="cid1272" unicode="&#x4e25;" 
d="M804 734v-62h-233v-219h251v-60h-632v-125q-5 -197 -109 -316l-48 42q89 100 93 274v185h227v219h-232v62h683zM512 453v219h-100v-219h100zM751 626q-26 -84 -64 -143l-51 20q18 26 33.5 61t29.5 77zM215 638q38 -59 67 -133l-52 -23q-32 80 -69 140z" />
    <glyph glyph-name="cid14996" unicode="&#x4e26;" 
d="M66 539v62h470q26 39 47 80t40 85l61 -22q-34 -78 -78 -143h216v-62h-247v-493h262v-61h-787v61h261v493h-245zM513 46v493h-139v-493h139zM172 456q21 -66 40.5 -138.5t36.5 -151.5l-60 -12q-15 82 -33.5 154.5t-40.5 136.5zM776 446q-17 -86 -39.5 -159t-48.5 -136
l-57 21q48 114 87 288zM265 766q24 -31 46 -65.5t44 -71.5l-54 -28q-22 39 -44 74t-47 64z" />
    <glyph glyph-name="cid1273" unicode="&#x4e27;" 
d="M412 664v105h63v-105h325v-58h-325v-227h358v-59h-388q28 -78 98 -143q90 34 178 114l41 -40q-38 -37 -80.5 -64t-90.5 -47q97 -72 247 -124l-36 -59q-346 133 -422 363h-136v-277q52 15 96 31t80 33l12 -60q-56 -22 -119 -42.5t-138 -37.5l-19 60q26 12 26 46v247h-128
v59h358v227h-335v58h335zM191 579q23 -34 44 -71.5t41 -79.5l-54 -26q-39 83 -83 152zM746 554q-35 -77 -89 -153l-52 27q28 38 50 75.5t40 75.5z" />
    <glyph glyph-name="cid1275" unicode="&#x4e2a;" 
d="M476 506v-550h-65v550h65zM471 767q56 -92 152 -172t232 -150l-39 -57q-250 130 -373 320q-75 -106 -167 -186.5t-206 -138.5l-38 58q247 125 383 326h56z" />
    <glyph glyph-name="cid1276" unicode="&#x4e2b;" 
d="M777 732q-127 -187 -297 -309v-467h-65v495q201 145 308 317zM180 755q71 -72 125 -133t92 -114l-53 -36q-39 56 -94.5 118t-125.5 130z" />
    <glyph glyph-name="cid1278" unicode="&#x4e2d;" 
d="M411 771h65v-159h318v-416h-63v55h-255v-302h-65v302h-254v-55h-64v416h318v159zM157 314h254v237h-254v-237zM476 314h255v237h-255v-237z" />
    <glyph glyph-name="cid1279" unicode="&#x4e30;" 
d="M129 440h282v141h-323v63h323v123h65v-123h329v-63h-329v-141h288v-64h-288v-141h350v-63h-350v-216h-65v216h-348v63h348v141h-282v64z" />
    <glyph glyph-name="cid1280" unicode="&#x4e32;" 
d="M134 677h277v93h65v-93h278v-227h-278v-90h311v-246h-311v-158h-65v158h-310v246h310v90h-277v227zM690 505v117h-214v-117h214zM411 505v117h-213v-117h213zM723 168v137h-247v-137h247zM411 168v137h-247v-137h247z" />
    <glyph glyph-name="cid1281" unicode="&#x4e34;" 
d="M286 767v-809h-62v809h62zM811 -39h-60v46h-312v-46h-60v409h432v-409zM568 68v243h-129v-243h129zM627 68h124v243h-124v-243zM593 565q74 -77 115 -132l-49 -36q-43 63 -117 137zM135 656v-552h-62v552h62zM471 597q-49 -96 -107 -166l-45 53q96 110 157 289l64 -14
q-10 -26 -19 -51t-19 -48h334v-63h-365z" />
    <glyph glyph-name="cid1282" unicode="&#x4e36;" 
d="M332 535q182 -158 301 -316l-49 -48q-108 150 -299 321z" />
    <glyph glyph-name="cid1283" unicode="&#x4e38;" 
d="M330 603v160h63v-160h275l-18 -535q0 -36 29 -36h51q21 0 34 18q15 20 21 149l62 -16q-14 -159 -40 -188q-27 -23 -73 -23h-74q-76 0 -76 80l15 490h-208q-7 -136 -35 -239q71 -55 140 -116l-37 -58q-62 61 -124 109q-4 -13 -9.5 -25t-11.5 -24q-72 -148 -235 -230
l-35 56q161 83 223 223q5 10 8.5 20.5t7.5 20.5q-79 59 -156 100l33 49q37 -20 71.5 -40.5t69.5 -43.5q9 45 15.5 94t11.5 104h-234v61h236z" />
    <glyph glyph-name="cid1284" unicode="&#x4e39;" 
d="M222 372v360h484v-360h130v-61h-130v-268q0 -78 -83 -78h-102l-18 62q27 -1 52.5 -1.5t48.5 -0.5q37 0 37 40v246h-357q-17 -218 -132 -357l-49 44q104 128 115 313h-168v61h172zM641 672h-355v-300h355v300zM420 622q41 -48 72 -88.5t54 -75.5l-51 -35q-49 76 -127 166z
" />
    <glyph glyph-name="cid1285" unicode="&#x4e3a;" 
d="M163 746q40 -40 69 -75.5t51 -64.5l-50 -36q-23 33 -52.5 69t-66.5 73zM475 372q48 -52 84.5 -98t62.5 -85l-56 -39q-26 44 -61.5 91t-81.5 99zM427 768v-105q-1 -30 -2 -58t-3 -55h365q0 -379 -33 -485q-34 -104 -125 -104q-65 0 -110 4l-17 62q35 -2 65.5 -3.5
t58.5 -1.5q75 5 85 150q7 72 9.5 150.5t2.5 163.5h-308q-20 -165 -74 -279q-79 -160 -260 -248l-35 56q179 92 248 240q41 100 59 231h-276v64h282q3 27 4 55t2 58v105h62z" />
    <glyph glyph-name="cid1286" unicode="&#x4e3b;" 
d="M81 554v63h335q-23 72 -54 137l61 16q35 -74 52 -139l-34 -14h364v-63h-329v-209h287v-58h-287v-239h361v-63h-787v63h362v239h-288v58h288v209h-331z" />
    <glyph glyph-name="cid1287" unicode="&#x4e3d;" 
d="M832 722v-62h-777v62h777zM252 -43l-16 58l62 -2q34 0 34 35v459h-178v-552h-58v612h295v-531q0 -79 -73 -79h-66zM218 412q30 -46 54 -95.5t44 -102.5l-52 -23q-44 119 -92 202zM653 -43l-15 58l58 -2q35 0 35 37v457h-178v-552h-59v612h296v-529q0 -81 -76 -81h-61z
M617 414q29 -48 53.5 -98.5t43.5 -104.5l-50 -22q-21 58 -44.5 109.5t-49.5 95.5z" />
    <glyph glyph-name="cid1288" unicode="&#x4e3e;" 
d="M204 759q23 -37 43.5 -75.5t41.5 -81.5l-56 -27q-37 90 -81 159zM411 769q22 -34 41 -72.5t39 -79.5l-55 -28q-18 44 -37 82.5t-40 72.5zM66 499v62h504q61 96 107 212l61 -23q-26 -57 -51 -103.5t-51 -85.5h186v-62h-197q73 -115 228 -179l-28 -59q-185 92 -261 238
h-247q-66 -137 -247 -234l-35 56q166 80 223 178h-192zM411 353v98h65v-98h203v-63h-203v-107h321v-63h-321v-164h-65v164h-321v63h321v107h-203v63h203z" />
    <glyph glyph-name="cid1290" unicode="&#x4e43;" 
d="M677 723v-31q-11 -61 -26 -123.5t-34 -126.5h198v-30q-5 -121 -11 -199t-15 -115q-16 -76 -55 -105q-39 -27 -120 -27h-109l-20 64q31 -2 58 -3t51 -1q35 0 58.5 5.5t37.5 14.5q28 22 39 79q5 29 10.5 92t11.5 164h-216q22 75 40 144t30 135h-245q-13 -293 -63 -434
q-62 -155 -201 -266l-43 56q127 96 184 237q25 65 39.5 166.5t20.5 240.5h-209v63h589z" />
    <glyph glyph-name="cid1291" unicode="&#x4e45;" 
d="M471 268q-162 -211 -400 -312l-37 62q355 145 538 556h-271q-84 -129 -211 -226l-42 56q202 150 273 372l71 -8q-11 -33 -24 -66t-29 -64h310v-54q-30 -74 -64 -138t-72 -121q102 -194 336 -308l-49 -58q-225 124 -329 309z" />
    <glyph glyph-name="cid1293" unicode="&#x4e48;" 
d="M631 343q55 -83 102.5 -170t88.5 -180l-64 -27q-8 23 -18.5 44.5t-19.5 43.5q-117 -22 -257.5 -36.5t-306.5 -25.5l-19 66q14 5 28 15t28 25q172 177 368 514l64 -32q-117 -191 -209.5 -319.5t-161.5 -197.5q229 16 437 48q-30 59 -59 111.5t-62 100.5zM450 757
q-138 -288 -366 -476l-44 53q210 167 342 437z" />
    <glyph glyph-name="cid1294" unicode="&#x4e49;" 
d="M373 768q42 -48 79 -101t69 -110l-57 -29q-34 60 -71.5 112.5t-79.5 99.5zM745 712q-61 -311 -246 -503q151 -124 348 -192l-40 -59q-205 78 -357 205q-148 -133 -368 -206l-35 57q209 68 353 194q-173 168 -272 405l59 32q93 -235 260 -392q178 184 235 474z" />
    <glyph glyph-name="cid1295" unicode="&#x4e4b;" 
d="M407 771q19 -34 39.5 -74t40.5 -84h275v-48q-153 -295 -453 -448l5 -7q56 -63 150 -72q30 -1 74 -1.5t103 -0.5q35 0 83.5 1t110.5 3l-14 -63h-171q-58 0 -100 0.5t-67 1.5q-143 3 -218 98q-25 29 -45 29q-37 0 -110 -148l-52 35q88 179 166 179q17 0 29 -8l9 -4
q276 143 422 391h-572v62h304q-18 41 -38.5 77t-44.5 69z" />
    <glyph glyph-name="cid1296" unicode="&#x4e4c;" 
d="M628 171v-61h-578v61h578zM545 15q27 -1 53.5 -1.5t52.5 -0.5q40 0 52 34q11 35 16 224h-542v400h175q12 26 21 52.5t16 55.5l67 -9q-8 -26 -19 -51t-23 -48h273q-1 -179 -26 -226q-27 -49 -119 -49h-49l-18 56q20 -1 40.5 -1h38.5q51 0 62 35q3 20 6 51t3 75h-383v-282
h540q-2 -124 -8 -201.5t-17 -110.5q-23 -63 -106 -63h-87z" />
    <glyph glyph-name="cid1297" unicode="&#x4e4d;" 
d="M263 578q-72 -127 -164 -223l-44 52q138 137 227 365l64 -13q-25 -67 -51 -119h535v-62h-403v-149h335v-61h-335v-149h359v-62h-359v-199h-64v620h-100z" />
    <glyph glyph-name="cid1298" unicode="&#x4e4e;" 
d="M424 348v286q-71 -5 -149.5 -8t-164.5 -3l-20 59q203 1 369.5 17.5t299.5 49.5l32 -56q-65 -16 -140 -29.5t-161 -22.5v-293h348v-61h-348v-240q0 -87 -81 -87h-121l-13 64q30 -3 57.5 -4.5t54.5 -1.5q37 0 37 46v223h-374v61h374zM740 594q-34 -114 -89 -201l-58 22
q48 77 85 195zM218 576q24 -39 45 -81t40 -87l-53 -24q-20 50 -43 93t-47 79z" />
    <glyph glyph-name="cid1299" unicode="&#x4e4f;" 
d="M798 704q-134 -33 -310.5 -48t-399.5 -15l-19 59q418 0 697 60zM420 612q17 -27 34.5 -58t34.5 -67h253v-58q-154 -206 -429 -331q55 -58 130 -60q23 0 49.5 -0.5t57.5 -0.5q134 0 287 3l-12 -65h-264q-32 0 -59 1t-50 2q-86 5 -131 33q-36 21 -65 61q-13 13 -26 13
q-40 0 -109 -130l-50 41q83 164 160 164q19 0 33 -12l2 -3q251 106 394 279h-548v63h309q-16 32 -34 60t-39 54z" />
    <glyph glyph-name="cid1300" unicode="&#x4e50;" 
d="M93 359q21 99 37.5 185t25.5 161q12 -2 24.5 -3t26.5 -2q312 1 511 63l29 -54q-202 -57 -540 -64q-10 -62 -21 -118t-23 -105h255v174h65v-174h324v-63h-324v-314q0 -86 -83 -86h-118l-15 63q29 -3 57 -4t54 -1q40 0 40 44v298h-325zM264 264q-34 -78 -74 -145.5
t-86 -125.5l-55 39q47 55 86.5 119.5t72.5 139.5zM660 297q41 -65 79.5 -134t74.5 -145l-59 -30q-71 157 -151 281z" />
    <glyph glyph-name="cid1301" unicode="&#x4e52;" 
d="M258 256h284v220h-284v-220zM192 687q292 24 480 75l33 -57q-195 -45 -447 -69v-98h508v-62h-159v-220h223v-60h-774v60h136v431zM358 147q-100 -111 -249 -196l-40 53q71 39 131.5 85t109.5 100z" />
    <glyph glyph-name="cid1302" unicode="&#x4e53;" 
d="M263 251h287v220h-287v-220zM199 688q154 13 278.5 30t221.5 41l32 -55q-103 -22 -219 -38.5t-249 -29.5v-104h512v-61h-159v-220h223v-62h-789v62h149v437zM570 182q72 -48 131.5 -94.5t108.5 -93.5l-49 -48q-84 89 -235 194z" />
    <glyph glyph-name="cid1303" unicode="&#x4e54;" 
d="M328 533q18 30 35 60t29 60q-61 -4 -125 -6.5t-134 -2.5l-20 57q367 1 611 65l31 -54q-63 -19 -136 -32t-157 -21q-28 -69 -62 -126h422v-61h-227q77 -106 255 -191l-41 -53q-101 54 -170.5 115t-110.5 129h-168q-109 -150 -279 -248l-43 51q74 42 134 91t108 106h-216
v61h264zM616 357v-402h-65v402h65zM341 357v-59q-4 -138 -55 -222q-50 -75 -165 -121l-36 53q108 42 151 108q19 36 30 81t12 101v59h63z" />
    <glyph glyph-name="cid1305" unicode="&#x4e58;" 
d="M642 253q-85 0 -85 85v172h63v-72q98 14 174 45l19 -53q-40 -14 -89 -25t-104 -21v-34q0 -44 40 -44h74q20 0 29 10q11 10 14 62l59 -19q-9 -77 -29 -92q-9 -6 -24 -10t-36 -4h-105zM412 606v73q-126 -8 -270 -8l-18 57q181 0 328 10.5t267 30.5l29 -54
q-58 -11 -126.5 -19t-146.5 -14v-76h358v-60h-358v-232q72 -81 163.5 -144t207.5 -109l-36 -59q-99 43 -181 101t-154 133v-281h-63v277q-137 -142 -332 -236l-40 62q240 102 372 253v235h-359v60h359zM319 509v-263h-63v43q-40 -10 -84.5 -18t-94.5 -18l-18 58
q104 13 197 31v62h-176v56h176v49h63z" />
    <glyph glyph-name="cid1306" unicode="&#x4e59;" 
d="M736 714v-56q-137 -101 -230 -172t-146 -115q-58 -48 -97 -88.5t-61 -74.5q-35 -54 -35 -91q0 -25 22 -45q25 -19 101 -19h354q73 3 101 37q30 40 30 170l61 -18q0 -154 -38 -202q-42 -48 -134 -48h-386q-99 0 -139 32q-40 37 -40 93q0 46 35 103q45 75 172 181
q58 50 137.5 113t181.5 139h-509v61h620z" />
    <glyph glyph-name="cid1308" unicode="&#x4e5d;" 
d="M387 767v-192h264v-504q0 -40 44 -40h43q36 0 44 50q3 29 4 61t1 66l61 -18q-5 -61 -8.5 -99t-7.5 -53q-17 -70 -94 -70h-54q-100 0 -100 93v449h-199q-11 -210 -76 -340q-35 -66 -92.5 -119t-137.5 -90l-37 60q156 74 218 198q51 114 61 291h-225v65h226v192h65z" />
    <glyph glyph-name="cid1309" unicode="&#x4e5e;" 
d="M298 760q-9 -24 -18.5 -47.5t-20.5 -46.5h528v-60h-560q-53 -95 -123 -168l-41 49q105 110 175 286zM692 486v-59q-311 -187 -410 -293q-41 -43 -46 -73q0 -27 38 -27h356q52 0 81 17q32 22 48 163l62 -24q-20 -155 -62 -185q-42 -31 -123 -31h-358q-111 0 -111 76
q0 56 76 130q53 53 139 114t210 133h-386v59h486z" />
    <glyph glyph-name="cid1310" unicode="&#x4e5f;" 
d="M492 771v-209l266 60q0 -137 -2.5 -219t-8.5 -112q-13 -83 -115 -83h-39l-19 59q20 0 37.5 -0.5t32.5 -0.5q41 0 50 62q3 28 3 214l-205 -44v-328h-62v313l-191 -41v-337q0 -60 62 -60h390q49 0 74 19q20 19 29 137l59 -18q-11 -140 -41 -171q-32 -29 -111 -29h-416
q-109 0 -109 112v333l-141 -31v62l141 33v210h63v-196l191 43v222h62z" />
    <glyph glyph-name="cid1311" unicode="&#x4e60;" 
d="M584 294q-94 -58 -209.5 -110t-256.5 -98l-25 58q138 44 256.5 95.5t219.5 113.5zM215 564q56 -41 102.5 -82.5t83.5 -84.5l-43 -44q-69 80 -186 169zM459 22q36 -1 73 -2t73 -1q40 0 60 38q20 37 23 177q3 46 3 150t3 269h-580v60h644q-3 -220 -5.5 -350t-5.5 -173
q-7 -132 -33 -179q-26 -49 -96 -49h-64t-78 -2z" />
    <glyph glyph-name="cid1312" unicode="&#x4e61;" 
d="M777 424q-29 -194 -177 -312q-128 -105 -455 -165l-29 64q299 49 433 145q51 38 89 87q-91 -13 -205 -23.5t-252 -20.5l-20 57q69 35 140 86.5t146 120.5q-149 -16 -296 -23l-16 57q156 122 269 282l63 -23q-102 -145 -238 -256q136 7 276 21q32 32 63 67t64 72l64 -29
q-225 -257 -402 -365q111 8 205 17.5t174 19.5q26 55 38 126z" />
    <glyph glyph-name="cid1313" unicode="&#x4e66;" 
d="M426 771v-154h260v-31l-18 -208h126q0 -129 -10.5 -202t-30.5 -96q-18 -19 -54 -28q-15 -2 -29 -4t-28 -2h-59l-17 60q23 0 44.5 -0.5t41.5 -0.5q42 1 57 23q19 21 22 189h-305v-362h-63v362h-315v61h315v177h-264v62h264v154h63zM606 378l17 177h-197v-177h180zM650 768
q100 -51 180 -119l-33 -53q-88 80 -180 124z" />
    <glyph glyph-name="cid1315" unicode="&#x4e70;" 
d="M136 486q100 -39 185 -97l-32 -52q-91 67 -184 104zM218 610q52 -21 96.5 -45.5t85.5 -54.5l-32 -50q-45 34 -88.5 60t-92.5 45zM526 610v-186q-3 -75 -18 -134h329v-62h-350q-5 -10 -10 -20.5t-10 -19.5q195 -89 351 -186l-43 -48q-166 104 -339 186q-4 -6 -8 -10t-7 -9
q-97 -105 -317 -163l-35 56q218 58 307 152q23 28 39 62h-351v62h378q8 31 13.5 65t8.5 69v186h62zM774 715v-38q-11 -41 -24.5 -80.5t-28.5 -77.5l-61 15q15 28 26.5 59t20.5 64h-609v58h676z" />
    <glyph glyph-name="cid1316" unicode="&#x4e71;" 
d="M231 516v137q-37 -3 -75 -5t-79 -2l-19 58q218 0 365 46l31 -54q-68 -25 -158 -36v-144h182v-60h-182v-151h149v-340h-63v42h-235v-42h-65v340h149v151h-188v60h188zM382 69v178h-235v-178h235zM614 -30q-80 0 -80 86v700h63v-687q0 -40 35 -40h94q28 0 40 21
q15 26 20 149l61 -19q-10 -150 -36 -182q-24 -28 -73 -28h-124z" />
    <glyph glyph-name="cid1317" unicode="&#x4e73;" 
d="M619 -30q-77 0 -77 92v694h63v-680q0 -47 34 -47h92q26 0 39 21q14 26 19 148l60 -20q-8 -147 -35 -180q-23 -28 -71 -28h-124zM479 206q-38 -10 -78.5 -19.5t-82.5 -16.5v-133q0 -76 -78 -76h-94l-18 61q55 -4 87 -4q39 0 39 38v103q-102 -18 -212 -31l-9 61
q59 7 114.5 14.5t106.5 16.5v95q23 16 50 35.5t58 42.5h-289v58h377v-47q-29 -26 -61.5 -53t-70.5 -57v-62q44 9 84.5 17.5t76.5 17.5v-61zM483 652q-27 -99 -70 -169l-55 20q20 32 36.5 73t30.5 91zM260 642q30 -68 48 -127l-54 -20q-12 34 -24 67.5t-26 66.5zM104 632
q29 -57 52 -133l-55 -15q-23 69 -53 129zM489 711q-166 -44 -434 -44l-18 53q128 0 233 11t189 31z" />
    <glyph glyph-name="cid1318" unicode="&#x4e7e;" 
d="M206 684v83h64v-83h160v-58h-160v-75h132v-319h-132v-80h162v-57h-162v-141h-64v141h-169v57h169v80h-129v319h129v75h-156v58h156zM342 367h-206v-81h206v81zM342 418v80h-206v-80h206zM535 590q-17 -29 -34 -55.5t-36 -49.5l-42 49q75 90 120 235l60 -13
q-9 -28 -19 -54t-21 -50h274v-62h-302zM790 457v-56q-54 -55 -94.5 -102t-69.5 -86q-27 -33 -45.5 -58t-29.5 -45q-17 -31 -17 -49q0 -34 43 -34h143q28 0 44 23q13 20 20 145l57 -20q-13 -148 -38 -175q-25 -28 -83 -31h-156q-98 0 -98 81q0 27 21 61q9 20 31 51.5t54 72.5
q26 36 60 77t74 84h-233v61h317z" />
    <glyph glyph-name="cid15042" unicode="&#x4e82;" 
d="M350 360q16 -21 30.5 -44t27.5 -49l-40 -16q-3 8 -7 15.5t-8 14.5q-31 -5 -76 -10.5t-105 -11.5l-7 39q16 3 29 24q8 9 14 20.5t12 24.5h-88v-408h-59v461h157q-20 13 -39 26.5t-41 27.5l33 33q33 -20 60 -38.5t50 -38.5q29 18 58 37.5t59 42.5h-329v47h40q-17 37 -44 74
l49 18q13 -19 24.5 -42t24.5 -50h78q-10 27 -18.5 49.5t-19.5 42.5l55 8q9 -22 17.5 -46.5t18.5 -53.5h59q33 52 61 112l50 -17q-27 -53 -56 -95h67v-41q-27 -26 -57 -50t-63 -46h128v-374q0 -84 -70 -84h-82l-15 57l80 -2q30 0 30 41v309h-168q-20 -41 -38 -66q28 3 53 6.5
t48 6.5q-5 9 -10.5 17.5t-11.5 15.5zM208 180q23 -13 44.5 -25.5t41.5 -24.5q25 26 42 56h-165v40h221v-33q-23 -51 -58 -89q18 -13 34 -24t30 -23l-33 -35q-13 13 -29.5 26t-34.5 25q-48 -38 -111 -66l-30 39q60 25 101 54q-37 26 -82 52zM495 714q-81 -23 -187.5 -34.5
t-241.5 -11.5l-17 52q254 0 419 42zM645 -32q-80 0 -80 86v704h64v-693q0 -38 33 -38h77q17 0 30 15q13 25 17 160l63 -18q-6 -78 -13.5 -124.5t-17.5 -63.5q-20 -24 -61 -28h-112z" />
    <glyph glyph-name="cid1319" unicode="&#x4e86;" 
d="M424 473q134 76 258 181h-583v61h670v-61q-62 -56 -131.5 -108.5t-147.5 -104.5v-396q0 -83 -83 -83t-142 4l-16 62q33 -2 68 -4t71 -2t36 35v416z" />
    <glyph glyph-name="cid1320" unicode="&#x4e88;" 
d="M307 625q41 -27 78.5 -55t71.5 -54q91 68 165 155h-465v61h546v-52q-44 -60 -94.5 -109.5t-106.5 -91.5q8 -6 14 -12l11 -11h280v-55q-33 -52 -72 -98.5t-85 -85.5l-51 44q33 27 66.5 60.5t65.5 73.5h-248v-354q0 -82 -79 -82h-128l-14 63q31 -3 61 -4t58 -1q38 0 38 41
v337h-346v61h366q-37 30 -80 61.5t-96 63.5z" />
    <glyph glyph-name="cid1321" unicode="&#x4e89;" 
d="M461 163v-113q0 -88 -88 -88h-129l-13 62q32 -3 61.5 -4.5t59.5 -1.5q46 0 46 47v98h-238v60h238v102h-345v59h345v99h-223v58q-17 -14 -34 -27.5t-35 -26.5l-39 48q139 92 226 236l64 -12q-12 -19 -22.5 -34.5t-21.5 -32.5h333v-49q-62 -57 -120 -99h196v-160h114v-59
h-114v-162h-261zM433 544q32 19 62 41.5t61 47.5h-288q-42 -48 -88 -89h253zM461 384h198v99h-198v-99zM461 223h198v102h-198v-102z" />
    <glyph glyph-name="cid1322" unicode="&#x4e8b;" 
d="M412 608v55h-348v54h348v53h63v-53h348v-54h-348v-55h263v-173h-263v-55h276v-120h96v-52h-96v-116h-276v-58q0 -75 -79 -75h-109l-13 59q26 -2 52 -3t49 -1q37 0 37 34v44h-291v51h291v65h-372v52h372v68h-291v52h291v55h-263v173h263zM674 558h-199v-75h199v75z
M412 558h-199v-75h199v75zM475 260h213v68h-213v-68zM475 208v-65h213v65h-213z" />
    <glyph glyph-name="cid1323" unicode="&#x4e8c;" 
d="M128 669h630v-62h-630v62zM47 112h791v-65h-791v65z" />
    <glyph glyph-name="cid1325" unicode="&#x4e8e;" 
d="M774 734v-63h-291v-241h352v-63h-352v-315q0 -87 -90 -87h-138l-13 61q34 -1 66.5 -2.5t63.5 -1.5q47 0 47 46v299h-367v63h367v241h-312v63h667z" />
    <glyph glyph-name="cid1326" unicode="&#x4e8f;" 
d="M750 720v-62h-612v62h612zM830 519v-61h-501l-49 -133h440q-10 -129 -23 -206t-33 -103q-41 -50 -164 -50q-22 0 -48 0.5t-55 1.5l-16 59q32 -2 61.5 -3.5t57.5 -1.5q81 0 109 32q30 31 43 213h-453l64 191h-206v61h773z" />
    <glyph glyph-name="cid1327" unicode="&#x4e91;" 
d="M763 716v-61h-631v61h631zM842 470v-65h-426q-121 -249 -213 -348q240 13 476 43q-23 44 -49.5 88t-56.5 89l52 33q61 -93 108 -172.5t80 -148.5l-56 -40l-22 46t-24 47q-136 -16 -282 -29t-306 -25l-18 65q6 1 9.5 3t6.5 3q86 63 224 346h-298v65h795z" />
    <glyph glyph-name="cid1328" unicode="&#x4e92;" 
d="M66 731h754v-63h-467l-36 -146h382l-71 -474h214v-61h-793v61h516l26 156h-417l114 464h-222v63zM600 264l31 198h-330l-49 -198h348z" />
    <glyph glyph-name="cid1330" unicode="&#x4e94;" 
d="M128 436h202l46 219h-293v61h721v-61h-365l-46 -219h299v-379h145v-64h-788v64h202l66 317h-189v62zM313 57h315v317h-248z" />
    <glyph glyph-name="cid1331" unicode="&#x4e95;" 
d="M260 598v167h64v-167h238v168h66v-168h175v-63h-175v-211h213v-61h-213v-303h-66v303h-252q-14 -76 -40 -134q-46 -103 -159 -162l-39 60q105 57 146 148q17 39 25 88h-197v61h208q2 24 3.5 50t2.5 53v108h-177v63h177zM324 427q0 -28 -1.5 -53.5t-3.5 -49.5h243v211
h-238v-108z" />
    <glyph glyph-name="cid1333" unicode="&#x4e9a;" 
d="M808 715v-60h-238v-598h266v-64h-786v64h266v598h-237v60h729zM506 57v598h-127v-598h127zM785 518q-23 -102 -52.5 -190t-65.5 -164l-55 21q65 136 116 346zM152 522q32 -74 60.5 -158.5t52.5 -179.5l-55 -17q-23 88 -51.5 172t-62.5 165z" />
    <glyph glyph-name="cid1334" unicode="&#x4e9b;" 
d="M328 765v-150h131v-60h-131v-165q34 6 69 13t68 14v-60q-194 -41 -415 -68l-15 60q20 2 39.5 4.5t37.5 4.5v320h63v-311q23 2 45 5.5t45 6.5v386h63zM824 641q-55 -29 -118.5 -53.5t-136.5 -43.5v-136q0 -40 30 -40h111q30 0 45 14q19 20 23 105l58 -18
q-10 -115 -37 -139q-23 -22 -77 -22h-142q-75 0 -75 87v370h64v-162q60 17 113.5 40t103.5 49zM732 226v-61h-579v61h579zM831 48v-63h-774v63h774z" />
    <glyph glyph-name="cid15054" unicode="&#x4e9e;" 
d="M66 733h756v-63h-241v-154h195v-302h-195v-166h255v-61h-783v61h253v166h-194v304h195v152h-241v63zM517 48v227h195v181h-195v214h-147v-214h-195v-181h194v-227h148z" />
    <glyph glyph-name="cid1335" unicode="&#x4e9f;" 
d="M322 527v-304h-229v304h229zM264 469h-112v-188h112v188zM836 47v-62h-783v62h783zM561 438q58 -46 110 -92q19 31 35.5 65t27.5 71h-198v56h263v-45q-30 -108 -82 -190q31 -29 58.5 -58t52.5 -58l-47 -47q-23 28 -47.5 56t-54.5 58q-53 -65 -130 -114l-39 51
q73 49 123 107q-26 26 -55 50.5t-60 50.5zM698 733v-62q-50 -33 -106 -64.5t-121 -64.5v-369q0 -75 -72 -75h-101l-15 62q22 -1 44.5 -2t48.5 -1q32 0 32 38v381q67 30 116.5 54t82.5 41h-448v62h539z" />
    <glyph glyph-name="cid1337" unicode="&#x4ea1;" 
d="M432 613q-34 67 -84 126l64 24q24 -31 47 -68.5t42 -81.5h334v-63h-600v-492h563v-64h-630v556h-118v63h382z" />
    <glyph glyph-name="cid1339" unicode="&#x4ea4;" 
d="M418 663q-23 52 -53 99l71 12q12 -26 25.5 -53.5t25.5 -57.5h349v-62h-784v62h366zM583 575q74 -59 135.5 -116.5t112.5 -116.5l-47 -48q-44 56 -104.5 115.5t-139.5 123.5zM651 383q-65 -123 -156 -211q145 -103 351 -156l-41 -59q-107 31 -196.5 73t-161.5 99
q-75 -60 -165 -104t-198 -71l-38 58q106 26 192 66t158 94q-50 44 -89.5 94t-70.5 106l54 31q57 -108 154 -190q92 87 149 195zM344 533q-101 -130 -250 -231l-41 55q144 92 244 217z" />
    <glyph glyph-name="cid1340" unicode="&#x4ea5;" 
d="M560 156q-89 -70 -198 -119t-241 -80l-39 57q450 101 624 402l58 -24q-33 -56 -72 -105.5t-86 -90.5q127 -98 215 -193l-50 -49q-76 94 -211 202zM659 537q-165 -297 -547 -392l-39 57q217 52 359 163q-66 -8 -134.5 -13.5t-141.5 -9.5l-17 60q10 3 15 6q33 19 75 70
t95 134h-270v60h364q-10 26 -21.5 48t-24.5 42l71 12q13 -22 23 -47t21 -55h346v-60h-437q-90 -148 -158 -208q67 3 132.5 8.5t130.5 14.5q57 58 99 135z" />
    <glyph glyph-name="cid1341" unicode="&#x4ea6;" 
d="M227 473q-23 -97 -56 -178.5t-73 -150.5l-56 36q84 141 121 306zM703 488q41 -76 75 -157.5t64 -166.5l-61 -27q-31 95 -66 177t-72 155zM435 767q24 -51 48 -113h343v-63h-245v-538q0 -91 -89 -91h-96l-14 62q23 -3 44.5 -4.5t43.5 -1.5q48 0 48 51v522h-142v-135
q-4 -344 -212 -500l-46 42q194 144 195 458v135h-250v63h351q-12 28 -24 53.5t-25 48.5z" />
    <glyph glyph-name="cid1342" unicode="&#x4ea7;" 
d="M445 780q11 -23 21.5 -48.5t20.5 -54.5h311v-62h-154q-10 -35 -19.5 -69t-24.5 -65h216v-61h-636v-131q-6 -208 -97 -333l-49 44q78 105 81 289v192h182l-37 134h-162v62h324q-9 26 -20 48t-23 43zM539 481q30 65 43 134h-260l38 -134h179z" />
    <glyph glyph-name="cid1343" unicode="&#x4ea8;" 
d="M711 568v-183h-537v183h537zM651 515h-416v-75h416v75zM441 774q8 -18 17.5 -40t17.5 -45h349v-60h-764v60h350q-19 38 -41 74zM423 188q43 14 92 32t107 41h-518v57h651v-44q-119 -56 -268 -113v-123q0 -79 -76 -79h-123l-18 59q37 -2 65.5 -3t49.5 -1q38 0 38 42v132z
" />
    <glyph glyph-name="cid1344" unicode="&#x4ea9;" 
d="M758 -46h-62v50h-502v-50h-61v545h625v-545zM414 64v158h-220v-158h220zM696 64v158h-220v-158h220zM414 281v160h-220v-160h220zM476 281h220v160h-220v-160zM421 660q-21 50 -51 90l62 23q30 -50 53 -113h350v-62h-783v62h369z" />
    <glyph glyph-name="cid1345" unicode="&#x4eab;" 
d="M709 580v-179h-530v179h530zM649 526h-410v-70h410v70zM434 770q10 -16 20.5 -35.5t18.5 -41.5h355v-60h-770v60h346q-11 18 -21 34.5t-23 31.5zM427 176v35q42 15 90 35.5t104 43.5h-496v57h622v-46q-56 -26 -120 -52.5t-136 -54.5v-18h357v-58h-357v-82q0 -81 -79 -81
h-126l-16 59q37 -2 66 -3t51 -1q40 0 40 44v64h-389v58h389z" />
    <glyph glyph-name="cid1346" unicode="&#x4eac;" 
d="M726 527v-249h-248v-237q0 -79 -80 -79h-96l-14 62q23 -3 45 -4.5t43 -1.5q39 0 39 40v220h-254v249h565zM662 466h-436v-126h436v126zM433 772q11 -23 21 -47t18 -54h364v-58h-786v58h358q-19 51 -41 90zM634 222q62 -51 113 -100.5t91 -99.5l-47 -47q-74 97 -198 205z
M295 180q-43 -59 -94.5 -110.5t-115.5 -94.5l-39 51q61 42 111.5 90.5t93.5 104.5z" />
    <glyph glyph-name="cid1347" unicode="&#x4ead;" 
d="M701 235v-52h-223v-144q0 -79 -85 -79h-88l-15 59q22 -2 43 -3t40 -1q39 0 39 41v127h-228v52h517zM412 692q-8 20 -16 37.5t-17 33.5l65 11q17 -36 31 -82h339v-56h-742v56h340zM696 581v-165h-505v165h505zM632 530h-378v-62h378v62zM810 202h-64v100h-606v-101h-63
v155h733v-154z" />
    <glyph glyph-name="cid1348" unicode="&#x4eae;" 
d="M608 242v-192q0 -32 36 -32h77q18 0 30 10q12 9 23 107l57 -18q-8 -95 -27 -124q-19 -30 -73 -30h-103q-82 0 -82 75v149h-205v-23q-6 -171 -253 -212l-35 54q225 33 225 167v69h330zM415 697q-22 37 -46 68l70 9q11 -16 21.5 -35t22.5 -42h339v-56h-756v56h349zM687 585
v-169h-488v169h488zM625 533h-363v-67h363v67zM802 201h-64v101h-590v-103h-64v159h718v-157z" />
    <glyph glyph-name="cid1349" unicode="&#x4eb2;" 
d="M577 200q72 -33 136.5 -73.5t122.5 -88.5l-34 -54q-125 108 -256 168zM335 156q-106 -100 -262 -167l-26 57q150 59 248 154zM447 772q10 -22 18 -45.5t17 -51.5h291v-58h-657v58h300q-8 23 -17.5 45t-18.5 42zM278 460q-24 58 -58 107l60 22q17 -26 33 -58.5t30 -70.5
h209q34 62 60 131l61 -21q-13 -30 -27 -58t-28 -52h195v-59h-335v-103h308v-57h-308v-203q0 -83 -82 -83h-102l-12 61q24 -2 47 -3t44 -1q42 0 42 42v187h-314v57h314v103h-342v59h205z" />
    <glyph glyph-name="cid1350" unicode="&#x4eb3;" 
d="M807 139l-353 -29v-60q0 -31 33 -31h252q26 0 39 11q14 12 20 69l51 -16q-7 -80 -33 -100q-11 -5 -26.5 -9.5t-38.5 -4.5h-282q-78 0 -78 69v67l-318 -24l-7 52l325 26v69q-45 -4 -90 -6t-91 -3l-16 48q140 5 255.5 16.5t209.5 30.5l28 -48q-56 -11 -113.5 -18.5
t-119.5 -13.5v-70l345 27zM412 704q-10 16 -17.5 31t-16.5 28l70 11q10 -15 17.5 -32.5t14.5 -37.5h341v-51h-754v51h345zM708 602v-151h-517v151h517zM649 555h-397v-56h397v56zM808 245h-62v105h-606v-120h-61v172h729v-157z" />
    <glyph glyph-name="cid1351" unicode="&#x4eb5;" 
d="M412 709q-10 15 -18 30.5t-18 27.5l63 11q9 -17 17.5 -33.5t15.5 -35.5h365v-56h-788v56h363zM218 566v63h60v-63h112v-56h-112v-75q53 8 103 21v-53l-103 -21v-72q0 -73 -75 -73h-87l-12 55q42 -3 79 -3q35 0 35 35v48q-35 -5 -70.5 -10.5t-70.5 -10.5l-14 54
q40 5 79 9.5t76 10.5v85h-141v56h141zM432 461q20 -8 39.5 -16t39.5 -17q8 20 12 39.5t6 42.5h-106v56h106v64h60v-64h149v-152q1 -108 32 -108q20 0 32 95l47 -24q-8 -66 -31 -103q-21 -25 -50 -25q-36 0 -59 32q-23 36 -23 133v96h-98q-4 -60 -24 -108q27 -12 52 -27
t49 -30l-32 -48q-47 31 -95 58q-43 -61 -117 -100l-45 39q71 34 111 87q-22 11 -43.5 19t-42.5 17zM421 235q-59 -49 -124 -87v-118q51 12 98 25.5t90 28.5l10 -54q-57 -18 -124.5 -35t-145.5 -35l-12 50q27 11 27 28v79q-35 -17 -77 -32.5t-94 -31.5l-34 53q110 27 196 69
q39 20 74 42.5t67 47.5zM753 221q-17 -20 -32.5 -35.5t-32.5 -28.5q-12 -9 -25.5 -18t-30.5 -19q87 -67 222 -104l-38 -54q-252 78 -356 279l51 27q30 -61 80 -111q15 8 30 17.5t28 18.5q15 13 28.5 27.5t25.5 30.5z" />
    <glyph glyph-name="cid1352" unicode="&#x4eba;" 
d="M475 767q0 -58 -2 -107t-4 -90q73 -360 385 -553l-42 -56q-272 180 -366 479q-80 -289 -376 -480l-39 57q365 225 378 608q1 45 1.5 80t0.5 62h64z" />
    <glyph glyph-name="cid1354" unicode="&#x4ebf;" 
d="M148 454q-23 -30 -48.5 -58.5t-51.5 -57.5l-21 66q74 82 127.5 174t86.5 198l60 -29q-35 -102 -88 -194v-599h-65v500zM788 683v-56q-97 -97 -161.5 -165t-101.5 -111q-81 -92 -111 -157q-25 -53 -25 -86q0 -24 16 -44q17 -19 71 -19h236q42 2 59 32q16 31 16 146l62 -17
q0 -138 -27 -180q-26 -42 -90 -42h-267q-76 0 -108 30q-33 39 -33 94q0 42 26 99q34 73 121 173q42 48 96.5 109t126.5 133h-353v61h447z" />
    <glyph glyph-name="cid1355" unicode="&#x4ec0;" 
d="M156 459q-24 -33 -51 -65t-57 -63l-21 66q147 165 211 374l59 -28q-15 -49 -35 -94t-44 -87v-608h-62v505zM594 768v-292h252v-64h-252v-457h-65v457h-240v64h240v292h65z" />
    <glyph glyph-name="cid1356" unicode="&#x4ec1;" 
d="M798 625v-63h-468v63h468zM846 111v-61h-567v61h567zM148 450q-23 -30 -47.5 -58.5t-51.5 -57.5l-19 67q73 82 126 174t86 198l60 -28q-18 -52 -40 -100.5t-48 -94.5v-593h-66v493z" />
    <glyph glyph-name="cid1360" unicode="&#x4ec5;" 
d="M287 745q-16 -49 -35.5 -95.5t-42.5 -89.5v-606h-64v502q-21 -30 -44.5 -58.5t-48.5 -55.5l-21 65q137 161 197 366zM810 -45q-142 99 -235 210q-51 -65 -114 -117t-138 -93l-43 52q154 83 255 211q-144 194 -165 434h-46v60h458v-56q-44 -259 -168 -440
q47 -59 107 -110.5t133 -99.5zM571 268q55 81 91 176t57 208h-287q16 -214 139 -384z" />
    <glyph glyph-name="cid1362" unicode="&#x4ec7;" 
d="M297 736q-18 -52 -39 -99.5t-48 -94.5v-587h-63v492q-23 -30 -47 -59t-51 -55l-19 66q143 159 209 364zM488 759v-183h203v-508q0 -42 35 -42h27q23 0 29 42q3 26 4.5 54t1.5 58l61 -17q-11 -110 -18 -134q-13 -62 -77 -62h-36q-90 0 -90 91v456h-140q-8 -377 -187 -555
l-50 44q169 161 175 511h-125v62h125v183h62z" />
    <glyph glyph-name="cid1364" unicode="&#x4eca;" 
d="M366 541q56 -25 107 -54.5t98 -66.5l-33 -52q-51 39 -102 70t-104 54zM752 331v-50q-86 -216 -347 -326l-42 55q228 93 314 261h-548v60h623zM467 767q84 -92 180.5 -165.5t207.5 -128.5l-33 -59q-222 110 -378 294q-72 -86 -165.5 -159.5t-210.5 -136.5l-35 61
q232 116 388 294h46z" />
    <glyph glyph-name="cid1365" unicode="&#x4ecb;" 
d="M622 470v-508h-64v508h64zM323 468v-163q-3 -240 -159 -351l-46 40q141 99 142 311v163h63zM467 763q163 -195 379 -305l-33 -57q-216 115 -370 303q-138 -178 -369 -311l-30 57q228 128 376 313h47z" />
    <glyph glyph-name="cid1366" unicode="&#x4ecd;" 
d="M297 666v62h429v-31q-8 -63 -19.5 -125.5t-27.5 -126.5h145v-29q-4 -122 -9 -200.5t-11 -118.5q-14 -78 -42 -106q-31 -28 -90 -28h-104l-19 63q30 -1 55 -2.5t48 -1.5q47 0 68 20q15 21 26 81q4 28 7.5 94.5t8.5 171.5h-157q17 71 31 141t24 136h-184v-165
q-4 -366 -190 -539l-53 46q178 156 179 493v165h-115zM270 748q-12 -44 -28 -86.5t-36 -82.5v-625h-64v512q-21 -33 -45 -65t-50 -63l-22 67q131 162 190 369z" />
    <glyph glyph-name="cid1367" unicode="&#x4ece;" 
d="M291 762q0 -104 -4.5 -193t-16.5 -166q52 -55 95.5 -110t79.5 -109l-48 -50q-27 48 -61.5 96t-76.5 100q-22 -113 -67.5 -204t-118.5 -164l-43 55q62 66 103.5 146t60.5 179q16 82 24.5 187t8.5 233h64zM638 763q0 -67 -3 -128t-7 -117q32 -161 89 -284.5t138 -215.5
l-46 -55q-131 162 -201 397l-3 -27q-42 -225 -195 -375l-45 54q133 130 175 327q16 84 24.5 189t8.5 235h65z" />
    <glyph glyph-name="cid1368" unicode="&#x4ed1;" 
d="M467 765q166 -215 386 -341l-35 -58q-220 129 -375 340q-140 -200 -374 -349l-33 61q228 137 384 347h47zM332 -30q-115 0 -115 126v361h63v-186q200 47 391 137l37 -52q-113 -51 -219.5 -86t-208.5 -58v-105q0 -78 68 -78h247q39 0 65 16q32 20 42 153l61 -20
q-15 -149 -52 -180q-36 -28 -101 -28h-278z" />
    <glyph glyph-name="cid1369" unicode="&#x4ed3;" 
d="M467 765q82 -101 177 -179t205 -135l-31 -57q-222 121 -375 314q-142 -184 -376 -318l-33 58q231 127 386 317h47zM286 392v-312q0 -50 49 -50h270q75 0 94 27q19 28 27 116l60 -19q-11 -128 -46 -160q-31 -24 -119 -24h-312q-89 0 -89 88v392h440v-205q0 -83 -76 -86
q-33 0 -64.5 0.5t-62.5 1.5l-18 61q33 -2 64 -3.5t59 -1.5q35 0 35 48v127h-311z" />
    <glyph glyph-name="cid1370" unicode="&#x4ed4;" 
d="M549 394v128q85 65 163 155h-355v57h430v-57q-37 -48 -80 -92.5t-93 -85.5v-105h239v-62h-239v-282q0 -92 -91 -92h-98l-15 59q38 -3 88 -3q51 0 51 55v263h-263v62h263zM147 451q-43 -56 -98 -112l-20 67q147 164 213 368l59 -27q-17 -54 -40 -102.5t-51 -97.5v-592h-63
v496z" />
    <glyph glyph-name="cid1371" unicode="&#x4ed5;" 
d="M300 742q-17 -53 -40 -101.5t-50 -93.5v-593h-63v498q-44 -58 -99 -113l-19 66q73 79 125.5 170t85.5 195zM523 507v262h66v-262h257v-61h-257v-398h223v-63h-510v63h221v398h-257v61h257z" />
    <glyph glyph-name="cid1372" unicode="&#x4ed6;" 
d="M284 747q-17 -51 -36 -98t-42 -92v-603h-64v502q-41 -62 -93 -118l-20 66q135 162 198 369zM420 -28q-92 0 -92 93v359l-86 -27v65l86 28v197h63v-177l132 43v216h64v-195l194 61q0 -141 -3 -226t-9 -115q-14 -59 -105 -59h-15l-19 63q13 -1 24.5 -2t21.5 -1q29 0 35 32
q2 16 4 70t3 150l-131 -40v-356h-64v335l-132 -41v-371q0 -40 45 -40h277q34 0 50 19q13 17 19 138l60 -20q-4 -72 -11.5 -113.5t-19.5 -55.5q-24 -30 -87 -30h-304z" />
    <glyph glyph-name="cid1374" unicode="&#x4ed8;" 
d="M294 747q-15 -46 -33 -89.5t-39 -83.5v-620h-64v514q-24 -37 -51.5 -69t-57.5 -66l-19 68q142 164 205 375zM652 576v191h65v-191h127v-62h-127v-463q0 -91 -85 -91h-128l-13 64q31 -3 60.5 -4.5t58.5 -1.5q42 0 42 49v447h-339v62h339zM395 417q51 -60 89.5 -112.5
t65.5 -96.5l-54 -38q-28 49 -66.5 102t-87.5 112z" />
    <glyph glyph-name="cid1375" unicode="&#x4ed9;" 
d="M300 748q-17 -52 -40 -101t-50 -96v-597h-63v499q-23 -29 -47 -57t-51 -56l-19 68q73 80 125.5 172t85.5 198zM606 765v-692h141v531h65v-645h-65v53h-354v-53h-62v644h62v-530h149v692h64z" />
    <glyph glyph-name="cid1380" unicode="&#x4ee3;" 
d="M818 495l-293 -37q3 -43 9 -79t12 -67q31 -138 88 -216q52 -69 98 -71q37 2 54 169l56 -32q-17 -111 -45 -162q-24 -39 -62 -41q-63 0 -135 84q-73 91 -111 244q-10 33 -16 73.5t-11 89.5l-192 -25l-10 61l197 25q-10 113 -11 259h66q0 -72 1.5 -133.5t5.5 -116.5l289 36
zM149 452q-23 -29 -48 -58t-52 -57l-19 66q144 160 211 368l60 -28q-36 -102 -86 -190v-599h-66v498zM608 763q41 -32 75.5 -67t62.5 -67l-45 -43q-24 32 -57.5 66.5t-75.5 70.5z" />
    <glyph glyph-name="cid1381" unicode="&#x4ee4;" 
d="M372 555q49 -22 93.5 -47t83.5 -55l-31 -49q-43 33 -87.5 58.5t-90.5 44.5zM286 201q47 -16 90.5 -36t85.5 -42q49 38 95 81.5t92 95.5h-507v60h586v-55q-88 -117 -209 -212q34 -19 67 -38t63 -39l-35 -55q-90 61 -180.5 107.5t-182.5 80.5zM465 758q166 -184 385 -290
l-32 -58q-219 110 -375 288q-140 -172 -374 -299l-32 57q230 120 385 302h43z" />
    <glyph glyph-name="cid1382" unicode="&#x4ee5;" 
d="M334 671q122 -140 185 -243l-53 -37q-34 56 -80 117.5t-104 129.5zM640 237q-88 -161 -283 -274l-43 53q227 131 301 327q28 83 42 188t15 235h66q0 -254 -56 -428q-4 -10 -7 -20t-7 -20q110 -139 183 -276l-49 -49q-31 63 -71 128.5t-91 135.5zM93 117q23 17 23 48v578
h67v-593q52 22 102.5 47.5t102.5 56.5l19 -63q-70 -39 -142 -72.5t-151 -61.5z" />
    <glyph glyph-name="cid1384" unicode="&#x4eea;" 
d="M297 745q-17 -52 -38.5 -100.5t-48.5 -94.5v-595h-63v496q-22 -28 -45.5 -55.5t-48.5 -53.5l-21 66q143 160 206 365zM484 769q82 -110 128 -191l-52 -36q-52 92 -124 192zM790 714q-22 -160 -69 -288.5t-119 -229.5q109 -119 252 -185l-39 -57q-72 36 -135 83.5
t-118 107.5q-106 -123 -259 -190l-35 56q150 66 250 186q-134 169 -212 417l56 31q34 -119 83 -218t112 -179q65 95 108.5 213.5t63.5 265.5z" />
    <glyph glyph-name="cid1386" unicode="&#x4eec;" 
d="M641 -38l-16 60l86 -3q40 0 40 50v580h-215v62h277v-659q0 -90 -89 -90h-83zM410 768q60 -78 96 -138l-50 -36q-35 65 -96 143zM300 747q-17 -54 -40 -102.5t-50 -97.5v-593h-63v497q-23 -29 -46.5 -57.5t-50.5 -55.5l-20 65q74 81 126.5 173t85.5 197zM381 617v-661h-62
v661h62z" />
    <glyph glyph-name="cid1387" unicode="&#x4ef0;" 
d="M284 131q22 9 22 33v520q110 31 174 74l37 -52q-28 -17 -66 -33.5t-87 -31.5v-485q36 12 70.5 25.5t67.5 28.5l12 -60q-46 -19 -99 -37.5t-115 -38.5zM140 464q-18 -33 -40.5 -64.5t-46.5 -61.5l-21 67q118 160 171 366l57 -26q-12 -43 -27.5 -84t-31.5 -81v-623h-61v507
zM668 65l-16 63l57 -3q38 0 38 42v478h-133v-686h-63v746h257v-550q0 -90 -78 -90h-62z" />
    <glyph glyph-name="cid1388" unicode="&#x4ef2;" 
d="M289 747q-34 -102 -82 -192v-601h-62v502q-43 -60 -96 -116l-22 67q138 159 203 367zM591 765v-157h220v-400h-61v44h-159v-297h-66v297h-157v-44h-62v400h219v157h66zM525 312v234h-157v-234h157zM750 312v234h-159v-234h159z" />
    <glyph glyph-name="cid1391" unicode="&#x4ef6;" 
d="M293 746q-34 -105 -88 -200v-591h-64v494q-40 -56 -92 -111l-20 67q139 158 203 368zM444 708q-6 -33 -13 -65t-16 -62h131v185h62v-185h205v-62h-205v-214h238v-61h-238v-285h-62v285h-261v61h261v214h-151q-33 -85 -83 -157l-41 54q81 121 110 299z" />
    <glyph glyph-name="cid1392" unicode="&#x4ef7;" 
d="M148 460q-21 -31 -44.5 -60.5t-49.5 -57.5l-21 66q130 158 191 360l59 -28q-15 -44 -31.5 -86.5t-37.5 -83.5v-612h-66v502zM690 458v-496h-62v496h62zM461 456v-134q-3 -252 -130 -368l-48 40q114 101 117 328v134h61zM570 763q40 -88 112 -165.5t174 -146.5l-36 -54
q-189 125 -279 306q-105 -203 -267 -314l-36 53q178 123 275 321h57z" />
    <glyph glyph-name="cid1393" unicode="&#x4efb;" 
d="M810 684q-48 -16 -103.5 -27.5t-120.5 -19.5v-248h260v-63h-260v-278h216v-63h-493v63h213v278h-258v63h258v243q-89 -7 -191 -7l-21 59q143 0 259 14.5t209 40.5zM298 739q-34 -103 -88 -193v-592h-63v497q-44 -57 -95 -108l-21 68q72 77 123.5 166t84.5 190z" />
    <glyph glyph-name="cid1394" unicode="&#x4efd;" 
d="M342 359v63h392q0 -282 -13 -350q-11 -104 -107 -104q-16 0 -39.5 0.5t-56.5 1.5l-15 61q31 -1 54.5 -2t45.5 -1q50 0 57 70q8 41 12 261h-156q-23 -147 -62 -230q-47 -94 -142 -170l-41 53q85 67 125 144q39 79 57 203h-111zM297 743q-18 -52 -39 -98.5t-48 -92.5v-598
h-64v499q-45 -60 -97 -111l-19 66q143 157 208 361zM491 736q-78 -227 -203 -346l-50 41q128 122 194 328zM642 770q58 -193 207 -318l-44 -49q-157 131 -217 336z" />
    <glyph glyph-name="cid1395" unicode="&#x4eff;" 
d="M295 744q-16 -47 -34.5 -91t-41.5 -86v-613h-63v510q-23 -33 -49 -64t-54 -61l-21 68q69 80 120 170.5t83 193.5zM296 568v62h244q-12 36 -25 69t-27 62l69 11q13 -30 24.5 -66.5t22.5 -75.5h233v-62h-345v-80q0 -18 -0.5 -36t-1.5 -36h288q-1 -282 -20 -366
q-24 -84 -109 -88q-29 0 -62.5 1.5t-70.5 3.5l-18 57q42 -2 77 -3.5t66 -1.5q54 5 64 67q4 31 5.5 98.5t3.5 171.5h-230q-28 -263 -164 -398l-50 44q157 152 160 486v80h-134z" />
    <glyph glyph-name="cid1396" unicode="&#x4f01;" 
d="M467 766q166 -187 388 -293l-34 -61q-112 57 -205.5 130t-172.5 167q-73 -87 -167 -161t-213 -137l-33 61q233 118 390 294h47zM501 531v-199h242v-62h-242v-217h306v-63h-738v63h134v351h62v-351h171v478h65z" />
    <glyph glyph-name="cid1398" unicode="&#x4f0a;" 
d="M535 266q-8 -40 -18.5 -72t-22.5 -61q-62 -120 -188 -177l-35 55q109 49 165 152q10 22 19 47t14 56h-148v59h157q7 59 7 131h-199v59h199v131h-150v60h438v-191h75v-59h-75v-190h-238zM549 515h159v131h-159v-131zM549 451q0 -33 -2 -64.5t-5 -61.5h166v131h-159v-5z
M148 463q-23 -33 -47.5 -64.5t-51.5 -61.5l-22 67q136 163 197 374l59 -30q-30 -91 -69 -171v-623h-66v509z" />
    <glyph glyph-name="cid1399" unicode="&#x4f0d;" 
d="M459 431l28 222h-170v61h493v-61h-261l-27 -222h222v-381h99v-61h-577v61h145l39 320h-133v61h142zM683 50v320h-169l-41 -320h210zM300 745q-17 -54 -40 -103.5t-50 -95.5v-592h-62v495q-22 -30 -45.5 -57t-49.5 -54l-21 67q144 161 209 368z" />
    <glyph glyph-name="cid1401" unicode="&#x4f0f;" 
d="M153 462q-43 -65 -99 -128l-21 68q132 163 193 369l59 -28q-27 -87 -68 -169v-620h-64v508zM687 744q74 -81 113 -143l-50 -35q-41 66 -112 148zM581 766q0 -100 -4 -244h259v-61h-248q63 -295 266 -458l-44 -48q-193 163 -257 418q-64 -251 -259 -418l-43 48
q222 196 257 458h-223v61h228q2 80 3.5 141t1.5 103h63z" />
    <glyph glyph-name="cid1402" unicode="&#x4f10;" 
d="M153 463q-23 -33 -47 -63t-50 -60l-22 67q130 157 192 361l59 -28q-27 -85 -68 -166v-619h-64v508zM818 522l-314 -50q6 -37 11.5 -70t11.5 -63q10 -35 19.5 -66t19.5 -57q99 96 167 231l53 -29q-79 -154 -193 -262q11 -25 26 -48q54 -79 103 -81q33 5 67 158l57 -36
q-23 -77 -48 -124q-34 -63 -74 -63q-68 0 -135 85q-25 34 -43 69q-109 -86 -240 -134l-36 53q72 26 133.5 60t114.5 77q-13 29 -23.5 60.5t-19.5 65.5q-10 35 -18.5 76.5t-13.5 87.5l-166 -26l-11 62l170 26q-5 55 -8.5 116t-3.5 128h66q0 -65 1.5 -123t7.5 -111l309 49z
M628 767q26 -30 50.5 -62.5t49.5 -67.5l-56 -27q-44 72 -97 132z" />
    <glyph glyph-name="cid1403" unicode="&#x4f11;" 
d="M148 451q-23 -29 -46.5 -56.5t-48.5 -54.5l-22 67q144 158 209 363l61 -27q-18 -54 -41 -103.5t-50 -94.5v-590h-62v496zM508 589v174h63v-174h230v-61h-183q82 -225 235 -372l-43 -58q-142 160 -235 430h-4v-573h-63v573h-4q-86 -275 -226 -435l-37 59q140 140 219 376
h-160v61h208z" />
    <glyph glyph-name="cid1404" unicode="&#x4f17;" 
d="M467 766q162 -206 374 -321l-34 -61q-213 124 -364 324q-140 -188 -370 -326l-31 60q225 131 378 324h47zM311 454q0 -47 -3 -88.5t-10 -78.5q83 -78 141 -155l-44 -45q-22 33 -49 67t-60 70l-8 -27q-41 -138 -194 -225l-38 49q129 75 171 190q16 48 25 108t9 135h60z
M622 462q0 -39 -1.5 -76.5t-5.5 -71.5q67 -186 232 -296l-42 -48q-70 49 -121.5 109.5t-86.5 132.5l-4 -14q-37 -141 -174 -231l-39 47q114 80 152 197q29 100 30 251h60z" />
    <glyph glyph-name="cid1405" unicode="&#x4f18;" 
d="M153 459q-44 -63 -103 -121l-18 63q143 157 208 365l57 -27q-15 -48 -35.5 -93.5t-44.5 -89.5v-601h-64v504zM464 552q1 13 1.5 26t0.5 28v160h60v-160v-28t-1 -26h298v-62h-184v-436q0 -26 25 -26h78q12 0 24 14q11 19 16 143l57 -19q-5 -71 -11.5 -113.5t-16.5 -58.5
q-19 -22 -54 -25h-109q-71 0 -71 73v448h-55q-29 -355 -222 -532l-47 40q179 163 207 492h-178v62h182zM643 749q41 -28 76 -57t63 -59l-43 -44q-27 30 -60.5 60t-78.5 61z" />
    <glyph glyph-name="cid1406" unicode="&#x4f19;" 
d="M154 452q-21 -27 -43.5 -54t-47.5 -53l-21 67q139 154 202 356l61 -28q-35 -102 -89 -194v-589h-62v495zM426 606q-15 -159 -69 -276l-59 17q30 58 46 124t23 141zM593 761q0 -57 -1 -113t-3 -110q0 -20 -1 -41t-4 -41q59 -296 265 -451l-44 -49q-184 154 -243 376
q-59 -222 -246 -377l-44 48q250 195 255 524q0 61 0.5 119.5t0.5 114.5h65zM818 611q-16 -78 -36 -144.5t-43 -124.5l-59 20q46 102 81 265z" />
    <glyph glyph-name="cid1407" unicode="&#x4f1a;" 
d="M467 768q169 -190 388 -297l-34 -63q-221 116 -378 304q-141 -175 -380 -304l-33 62q234 119 390 298h47zM662 496v-60h-435v60h435zM801 317v-62h-417q-32 -62 -70.5 -116t-84.5 -102q108 6 210.5 15.5t202.5 23.5q-23 30 -47.5 60t-52.5 60l51 32q120 -137 185 -235
l-53 -37q-23 37 -49 73q-104 -17 -234 -30.5t-290 -21.5l-18 55q24 7 33 18q87 99 143 205h-222v62h713z" />
    <glyph glyph-name="cid1409" unicode="&#x4f1e;" 
d="M412 246v320h63v-320h340v-61h-340v-227h-63v227h-342v61h342zM707 454q-17 -44 -39.5 -87t-48.5 -86l-53 29q28 43 50 85t37 85zM467 766q84 -83 180 -147.5t207 -112.5l-32 -57q-219 100 -378 260q-143 -157 -378 -273l-33 58q230 107 388 272h46zM233 468
q22 -38 40 -79t35 -88l-54 -14q-15 43 -33.5 83t-41.5 79z" />
    <glyph glyph-name="cid1410" unicode="&#x4f1f;" 
d="M514 665v100h65v-100h232v-59h-232v-111h195v-60h-195v-110h248q0 -195 -29 -235q-29 -42 -102 -44h-42l-16 58h40q55 2 72 29q12 27 15 133h-186v-311h-65v311h-235v59h235v110h-174v60h174v111h-208v59h208zM148 452q-23 -29 -47.5 -57t-51.5 -56l-19 68
q144 158 211 364l60 -28q-35 -103 -89 -196v-593h-64v498z" />
    <glyph glyph-name="cid1411" unicode="&#x4f20;" 
d="M148 450q-43 -58 -95 -112l-21 67q140 157 206 364l60 -29q-34 -103 -86 -194v-592h-64v496zM483 655l28 114l61 -6q-7 -28 -13.5 -55t-11.5 -53h267v-63h-284q-13 -52 -29 -102h350v-62h-371q-10 -29 -21.5 -57t-21.5 -55h365v-55q-58 -95 -179 -187q62 -33 121 -71
l-37 -55q-162 112 -333 175l34 50q41 -16 80.5 -33.5t79.5 -34.5q104 71 165 151h-379q16 42 33 84.5t33 87.5h-149v62h168q8 26 15 51t14 51h-158v63h173z" />
    <glyph glyph-name="cid1413" unicode="&#x4f24;" 
d="M297 749q-34 -103 -87 -195v-600h-64v499q-23 -29 -46.5 -57.5t-50.5 -56.5l-22 67q73 82 125.5 173.5t85.5 199.5zM503 771q-14 -57 -39 -108h377v-62h-409q-23 -39 -53.5 -73.5t-65.5 -67.5l-39 52q123 110 167 267zM566 546v-127h248q0 -150 -3 -241.5t-9 -125.5
q-13 -86 -106 -86q-40 0 -126 3l-17 56q40 -3 73 -3h61q46 0 55 52q8 45 10 282h-189q-26 -274 -227 -406l-49 44q188 120 212 362h-164v63h167v127h64z" />
    <glyph glyph-name="cid1415" unicode="&#x4f26;" 
d="M577 766q84 -166 279 -289l-36 -54q-181 115 -271 281q-106 -184 -267 -286l-38 56q180 111 278 292h55zM470 -31q-90 0 -90 89v390h64v-156q140 41 275 116l36 -51q-162 -86 -311 -127v-159q0 -41 47 -41h182q19 0 33.5 5t23.5 15q21 22 28 136l62 -21
q-13 -140 -45 -170q-29 -26 -91 -26h-214zM297 747q-18 -53 -39 -100.5t-48 -93.5v-599h-64v498q-43 -58 -96 -112l-20 68q72 80 123.5 171t83.5 195z" />
    <glyph glyph-name="cid1417" unicode="&#x4f2a;" 
d="M154 470q-22 -35 -48.5 -68t-53.5 -64l-21 66q133 159 196 365l57 -26q-28 -87 -66 -164v-625h-64v516zM355 747q61 -75 95 -130l-48 -33q-37 61 -95 130zM570 369q38 -51 68 -93t52 -80l-50 -34q-22 38 -50 80t-63 88q-13 -70 -35 -123q-61 -156 -203 -245l-34 54
q135 90 189 237q16 49 27 107t18 124h-186v62h191q1 27 2.5 53.5t2.5 54.5v114h61v-114q-2 -28 -2.5 -54.5t-1.5 -53.5h248q0 -380 -14 -469q-13 -110 -139 -110q-22 0 -70 3l-16 57q23 -1 42.5 -1.5t35.5 -0.5q77 0 88 75q8 63 11 384h-192q-3 -37 -8 -71.5t-12 -67.5z" />
    <glyph glyph-name="cid1419" unicode="&#x4f2f;" 
d="M161 464q-24 -33 -51 -63.5t-56 -60.5l-21 67q147 157 216 363l58 -28q-17 -49 -37 -93.5t-44 -86.5v-607h-65v509zM800 -41h-64v45h-328v-45h-64v676h143q26 66 39 135l66 -9q-9 -34 -19.5 -65t-23.5 -61h251v-676zM736 65v229h-328v-229h328zM736 353v221h-328v-221
h328z" />
    <glyph glyph-name="cid1420" unicode="&#x4f30;" 
d="M290 744q-34 -106 -87 -202v-588h-64v491q-20 -28 -43 -55.5t-47 -53.5l-20 67q138 162 201 369zM529 591v176h66v-176h253v-61h-253v-185h195v-389h-64v38h-322v-38h-64v389h189v185h-242v61h242zM726 57v227h-322v-227h322z" />
    <glyph glyph-name="cid1422" unicode="&#x4f34;" 
d="M385 717q39 -76 73 -179l-60 -16q-14 45 -33 89t-41 87zM800 719q-16 -59 -36 -108t-45 -92l-59 20q45 76 79 196zM526 479v288h67v-288h231v-62h-231v-146h255v-61h-255v-255h-67v255h-250v61h250v146h-224v62h224zM289 745q-18 -53 -38.5 -102t-46.5 -96v-593h-64v494
q-19 -29 -41 -55.5t-46 -53.5l-22 68q137 161 198 365z" />
    <glyph glyph-name="cid1423" unicode="&#x4f36;" 
d="M495 546q62 -45 115 -108l-37 -44q-57 65 -120 113zM289 744q-17 -52 -38 -101t-47 -96v-593h-64v495q-21 -29 -42.5 -55.5t-45.5 -53.5l-22 67q135 159 200 365zM758 368v-53q-83 -124 -195 -221q35 -23 66.5 -46t61.5 -46l-46 -46q-56 48 -132.5 99.5t-176.5 106.5
l44 40q36 -18 69 -36.5t63 -37.5q44 36 87 81.5t86 100.5h-396v58h469zM561 760q83 -162 289 -289l-35 -52q-189 111 -281 278q-113 -182 -282 -281l-35 53q184 110 287 291h57z" />
    <glyph glyph-name="cid1424" unicode="&#x4f38;" 
d="M378 263h156v129h-156v-129zM378 202v-41h-61v474h217v130h62v-130h218v-474h-60v41h-158v-247h-62v247h-156zM754 263v129h-158v-129h158zM754 577h-158v-128h158v128zM378 577v-128h156v128h-156zM295 745q-17 -53 -39.5 -102t-48.5 -97v-592h-62v497q-21 -29 -44 -56
t-48 -53l-21 66q140 159 204 364z" />
    <glyph glyph-name="cid1425" unicode="&#x4f3a;" 
d="M598 -41l-16 59l129 -1q40 0 40 52v606h-461v60h524v-684q0 -92 -90 -92h-126zM674 567v-58h-380v58h380zM641 412v-281h-319v281h319zM577 354h-192v-165h192v165zM272 745q-28 -89 -65 -168v-623h-62v510q-22 -31 -45 -62t-48 -60l-21 68q125 157 182 363z" />
    <glyph glyph-name="cid1426" unicode="&#x4f3c;" 
d="M290 140q42 16 42 40v566h63v-574q63 25 127 62l16 -57q-54 -28 -110 -51t-118 -44zM151 459q-46 -65 -102 -126l-22 68q141 162 204 371l59 -28q-30 -99 -77 -183v-602h-62v500zM757 765q0 -129 -11 -235.5t-32 -196.5q-5 -25 -11.5 -48.5t-16.5 -46.5
q112 -135 171 -238l-52 -35q-27 49 -63.5 102.5t-80.5 112.5q-65 -129 -188 -226l-40 50q166 131 220 332q43 165 43 429h61zM502 663q61 -107 105 -226l-53 -23q-44 131 -104 231z" />
    <glyph glyph-name="cid1427" unicode="&#x4f3d;" 
d="M138 460q-19 -30 -40 -58.5t-45 -56.5l-21 67q61 80 105 168.5t72 190.5l56 -26q-12 -48 -29.5 -92t-37.5 -88v-609h-60v504zM538 612q0 -209 -4 -336.5t-9 -177.5q-10 -136 -105 -136q-18 0 -58 4l-15 56q19 -1 34.5 -2.5t30.5 -1.5q49 0 56 104q8 69 10 429h-88v-40
q-3 -381 -120 -556l-46 41q105 160 107 515v40h-80v61h80v158h59v-158h148zM814 -19h-57v53h-103v-53h-57v661h217v-661zM757 91v495h-103v-495h103z" />
    <glyph glyph-name="cid1429" unicode="&#x4f46;" 
d="M781 712v-528h-423v528h423zM717 417h-296v-174h296v174zM717 476v177h-296v-177h296zM848 48v-63h-559v63h559zM301 746q-17 -53 -40 -101t-51 -95v-596h-62v498q-43 -56 -98 -112l-20 68q144 158 211 366z" />
    <glyph glyph-name="cid15128" unicode="&#x4f47;" 
d="M830 477h-60v126h-404v-126h-59v186h235q-13 27 -25 52t-24 48l65 10q24 -49 47 -110h225v-186zM408 -38l-15 64q64 -4 122 -4q37 0 37 37v304h-255v62h542v-62h-221v-321q0 -80 -80 -80h-130zM301 744q-17 -53 -40 -102.5t-51 -96.5v-591h-63v496q-22 -28 -45 -55
t-49 -53l-21 66q147 162 210 364z" />
    <glyph glyph-name="cid15129" unicode="&#x4f48;" 
d="M278 743q-13 -43 -29 -84t-34 -81v-619h-63v509q-22 -34 -46.5 -66.5t-50.5 -63.5l-21 65q128 161 190 367zM469 645q21 60 34 122l59 -11q-6 -30 -14 -57.5t-18 -53.5h307v-60h-327q-35 -86 -79 -158h131v111h59v-111h184v-320q0 -68 -71 -68h-58l-16 55l57 -2
q30 0 30 27v252h-126v-415h-59v415h-121v-342h-59v329q-49 -65 -112 -120l-35 46q135 122 211 301h-159v60h182z" />
    <glyph glyph-name="cid1430" unicode="&#x4f4d;" 
d="M297 746q-17 -53 -38 -100.5t-47 -94.5v-597h-64v499q-42 -56 -95 -113l-21 68q141 160 206 365zM532 625q-9 35 -20 68t-23 63l67 11q10 -31 20.5 -66.5t19.5 -75.5h231v-61h-533v61h238zM583 60q34 89 63.5 200.5t54.5 246.5l61 -15q-48 -246 -113 -432h201v-64h-572
v64h305zM402 497q28 -86 50.5 -183.5t42.5 -208.5l-59 -17q-18 102 -41 198.5t-51 193.5z" />
    <glyph glyph-name="cid1431" unicode="&#x4f4e;" 
d="M385 62q20 9 39.5 17.5t39.5 17.5l11 -56q-36 -13 -76.5 -27t-87.5 -31l-17 55q28 10 28 35v584q282 43 436 97l36 -52q-33 -12 -71.5 -23t-83.5 -21q1 -126 6 -216h190v-62h-184q2 -29 6 -53.5t8 -46.5q22 -119 53 -177q29 -57 45 -57q19 2 31 148l54 -30
q-26 -192 -73 -192q-42 0 -89 70q-48 76 -78 217q-5 27 -9.5 57.5t-7.5 63.5h-206v-318zM577 644q-43 -9 -91.5 -17.5t-100.5 -17.5v-167h199q-7 90 -7 202zM529 152q39 -44 68 -84.5t49 -76.5l-49 -32q-22 37 -50 77.5t-60 83.5zM294 743q-16 -52 -37 -99t-47 -93v-597h-62
v500q-23 -30 -47 -58.5t-51 -57.5l-20 67q143 159 207 364z" />
    <glyph glyph-name="cid1432" unicode="&#x4f4f;" 
d="M535 617q-13 35 -26 67.5t-29 65.5l65 18q16 -39 27 -73.5t21 -65.5l-30 -12h263v-63h-233v-212h209v-62h-209v-233h253v-63h-572v63h252v233h-210v62h210v212h-238v63h247zM295 745q-34 -104 -88 -198v-593h-62v497q-21 -29 -44.5 -56t-48.5 -53l-21 66q142 160 205 364
z" />
    <glyph glyph-name="cid1433" unicode="&#x4f50;" 
d="M479 622q10 34 17.5 69.5t15.5 71.5l62 -9q-6 -35 -14 -67.5t-15 -64.5h277v-64h-296q-15 -51 -33 -98.5t-37 -90.5h340v-61h-167v-262h210v-59h-520v59h249v262h-145q-30 -55 -64.5 -102t-72.5 -90l-42 51q142 158 217 391h-154v64h172zM297 743q-18 -52 -39.5 -100.5
t-48.5 -93.5v-595h-61v499q-23 -29 -47 -57t-51 -56l-20 68q142 159 207 363z" />
    <glyph glyph-name="cid1434" unicode="&#x4f51;" 
d="M301 735q-17 -53 -40 -102t-51 -98v-577h-63v483q-22 -30 -45.5 -57t-48.5 -53l-22 68q144 159 209 364zM781 -41h-61v53h-241v-53h-61v335q-31 -47 -65 -85t-73 -69l-31 57q153 134 223 368h-164v60h181q7 35 14 71.5t12 72.5l64 -8q-6 -37 -12 -70t-15 -66h279v-60
h-293q-30 -105 -72 -188h315v-418zM720 70v248h-241v-248h241z" />
    <glyph glyph-name="cid1435" unicode="&#x4f53;" 
d="M142 433q-19 -30 -42 -58.5t-47 -56.5l-19 64q139 170 201 389l56 -26q-16 -55 -37.5 -107.5t-47.5 -102.5v-580h-64v478zM512 617v152h62v-152h242v-63h-180q60 -217 215 -390l-41 -53q-164 199 -226 443h-10v-355h137v-61h-137v-183h-62v183h-136v61h136v355h-11
q-67 -277 -231 -454l-32 56q149 156 211 398h-172v63h235z" />
    <glyph glyph-name="cid15135" unicode="&#x4f54;" 
d="M557 768v-159h291v-63h-291v-163h228v-428h-64v39h-336v-39h-65v428h171v385h66zM721 58v264h-336v-264h336zM317 747q-37 -109 -93 -205v-588h-65v494q-23 -29 -46.5 -56t-48.5 -54l-21 67q148 163 216 371z" />
    <glyph glyph-name="cid1436" unicode="&#x4f55;" 
d="M847 714v-61h-69v-613q0 -82 -82 -82h-151l-15 63q39 -3 74.5 -4t68.5 -1q40 0 40 41v596h-415v61h549zM608 519v-331h-287v331h287zM546 461h-164v-215h164v215zM286 746q-33 -101 -80 -190v-602h-64v500q-41 -60 -89 -112l-21 68q68 78 117 168.5t79 194.5z" />
    <glyph glyph-name="cid1439" unicode="&#x4f59;" 
d="M467 765q165 -156 388 -249l-33 -58q-222 96 -379 251q-73 -75 -167.5 -138t-214.5 -118l-31 58q236 104 391 254h46zM679 527v-61h-196v-115h322v-61h-322v-234q0 -90 -92 -90h-106l-15 60q26 -1 50.5 -2.5t48.5 -1.5q51 0 51 49v219h-338v61h338v115h-211v61h470z
M310 209q-77 -139 -199 -211l-50 40q66 36 112.5 84.5t80.5 109.5zM630 243q66 -59 116.5 -111.5t85.5 -97.5l-54 -38q-35 49 -84.5 102.5t-112.5 113.5z" />
    <glyph glyph-name="cid1441" unicode="&#x4f5b;" 
d="M280 747q-16 -54 -36 -102t-45 -95v-596h-62v495q-38 -56 -84 -109l-21 65q131 165 192 369zM324 314h90q4 28 5.5 57.5t3.5 59.5h-82zM484 431q-1 -31 -3.5 -60t-5.5 -57h105v117h-96zM641 314h186q0 -174 -17 -219q-21 -48 -86 -50q-13 0 -23 0.5t-21 0.5l-15 59
q13 -1 25 -3t23 -2q39 0 45 39q8 31 8 117h-125v-301h-61v301h-113q-11 -69 -33 -124q-46 -115 -154 -181l-34 55q99 63 139 169q5 20 10.5 40t9.5 41h-143l25 231h136v119h-135v58h135v101h62v-101h95v101h61v-101h157v-233h-157v-117zM485 487h95v119h-95v-119zM641 487
h98v119h-98v-119z" />
    <glyph glyph-name="cid1442" unicode="&#x4f5c;" 
d="M430 580q-62 -127 -142 -224l-46 54q118 139 194 363l63 -14q-10 -30 -20.5 -59.5t-21.5 -56.5h382v-63h-297v-146h259v-62h-259v-150h263v-61h-263v-206h-65v625h-47zM146 452q-44 -55 -93 -106l-22 68q144 154 209 356l61 -27q-18 -53 -41 -101t-50 -93v-594h-64v497z
" />
    <glyph glyph-name="cid1446" unicode="&#x4f60;" 
d="M148 448q-45 -59 -98 -116l-20 68q72 81 124 174t85 198l59 -28q-34 -104 -88 -198v-591h-62v493zM719 416q66 -156 117 -339l-56 -24q-54 194 -119 343zM413 598q-44 -104 -99 -188l-54 35q102 147 147 325l60 -11q-7 -26 -14.5 -51t-16.5 -48h377v-42
q-10 -41 -23 -81.5t-31 -80.5l-60 18q15 27 27.5 58t23.5 66h-337zM408 -39l-13 61q27 -3 54 -4t53 -1q34 0 34 35v471h61v-487q0 -75 -73 -75h-116zM448 393q-24 -93 -54.5 -174t-70.5 -151l-59 22q72 123 127 318z" />
    <glyph glyph-name="cid1447" unicode="&#x4f63;" 
d="M388 338v-27t-1 -25h148v162h-147v-110zM382 226q-19 -164 -84 -275l-48 45q73 132 78 337v396h485v-695q0 -76 -78 -76h-74l-16 59q39 -3 72 -3q35 0 35 42v170h-155v-258h-62v258h-153zM752 448h-155v-162h155v162zM752 668h-155v-161h155v161zM388 668v-161h147v161
h-147zM140 449q-21 -30 -43.5 -58t-47.5 -54l-19 66q137 161 200 369l57 -26q-16 -54 -37 -103t-47 -97v-592h-63v495z" />
    <glyph glyph-name="cid1451" unicode="&#x4f69;" 
d="M662 594v-54h-114v-92h111v-336q0 -61 -49 -61h-62v-83h-52v428h-61v-355h-48v407h109v92h-116v54h282zM592 97q18 0 18 29v270h-62v-297zM758 733v-478q0 -147 8 -187q10 -40 22 -40q15 0 25 145l47 -21q-13 -111 -29 -154q-17 -36 -37 -36q-47 0 -68 59q-23 60 -23 234
v423h-362v-312q-1 -243 -73 -407l-44 36q29 74 45.5 166t17.5 205v367h471zM258 745q-15 -47 -30.5 -91t-35.5 -88v-611h-57v503q-20 -32 -40.5 -61t-42.5 -59l-20 64q117 162 171 368z" />
    <glyph glyph-name="cid1455" unicode="&#x4f73;" 
d="M525 660v108h66v-108h195v-61h-195v-131h241v-63h-546v63h239v131h-192v61h192zM525 261v112h66v-112h203v-62h-203v-151h255v-63h-575v63h254v151h-203v62h203zM146 449q-22 -29 -45 -55.5t-48 -53.5l-21 68q72 79 123.5 169.5t84.5 193.5l61 -27q-18 -52 -41 -101
t-50 -96v-592h-64v494z" />
    <glyph glyph-name="cid15147" unicode="&#x4f75;" 
d="M314 739q-16 -43 -33.5 -84t-40.5 -80v-620h-63v522q-26 -36 -57 -71t-64 -68l-21 65q154 160 221 364zM430 766q45 -64 88 -137l-53 -27q-21 39 -43.5 73.5t-45.5 63.5zM491 540v-182q0 -7 -0.5 -14t-0.5 -14h165v210h-164zM427 330q0 8 1.5 14.5t1.5 13.5v182h-120v60
h319q26 38 49.5 80t43.5 86l60 -21q-20 -41 -41.5 -77t-45.5 -68h128v-60h-106v-210h131v-60h-131v-314h-62v314h-170q-26 -212 -155 -318l-47 41q117 93 140 277h-134v60h138z" />
    <glyph glyph-name="cid1459" unicode="&#x4f7c;" 
d="M529 654q-24 59 -51 109l65 10q13 -26 25 -56t25 -63h233v-63h-532v63h235zM479 534q-35 -65 -76 -123t-90 -108l-51 37q48 48 88.5 102t75.5 119zM668 563q118 -125 179 -217l-50 -34q-33 50 -77 104.5t-101 115.5zM717 383q-32 -149 -115 -249q48 -37 109.5 -68.5
t137.5 -58.5l-31 -53q-158 53 -258 136q-52 -49 -118.5 -82t-147.5 -53l-35 55q78 18 141.5 48t112.5 74q-101 102 -128 238l56 18q23 -123 112 -213q77 92 102 221zM145 450q-41 -59 -92 -117l-22 68q68 81 115.5 173t79.5 196l59 -28q-31 -99 -78 -188v-600h-62v496z" />
    <glyph glyph-name="cid1461" unicode="&#x4f7f;" 
d="M536 678v90h64v-90h244v-61h-244v-85h208v-251h-211q-13 -121 -47 -185q134 -72 308 -82l-16 -62q-188 13 -327 94q-73 -73 -226 -95l-27 59q135 14 197 73q-39 28 -74 61t-66 74l49 33q29 -37 60.5 -66t66.5 -55q29 59 37 151h-199v251h203v85h-233v61h233zM747 475
h-147v-115q0 -5 -0.5 -10t-0.5 -11h148v136zM535 339q0 6 0.5 11t0.5 10v115h-143v-136h142zM140 448q-21 -30 -43.5 -59t-47.5 -56l-22 68q140 163 200 372l60 -27q-33 -105 -82 -195v-597h-65v494z" />
    <glyph glyph-name="cid1462" unicode="&#x4f83;" 
d="M556 378v-399h-60v399h60zM150 454q-22 -32 -45.5 -65t-48.5 -64l-22 69q128 161 186 376l58 -26q-13 -47 -30 -91t-36 -86v-611h-62v498zM740 726v-290h-417v290h417zM678 666h-292v-170h292v170zM719 -30q-35 0 -50 19q-17 21 -17 49v345h59v-332q0 -24 25 -24h20
q18 0 25 11q15 14 18 142l51 -16q-4 -72 -10.5 -113t-14.5 -56q-18 -25 -57 -25h-49zM404 294q0 -98 -28 -182.5t-82 -160.5l-48 41q98 133 98 302v85h60v-85z" />
    <glyph glyph-name="cid15157" unicode="&#x4f86;" 
d="M210 393q-39 -66 -99 -115l-40 49q114 92 156 251l59 -11q-9 -34 -20.5 -65t-26.5 -60q32 -18 62 -39t56 -44l-35 -54q-27 27 -55 49t-57 39zM654 399q-34 -55 -81 -96l-38 50q94 84 129 224l60 -12q-7 -32 -17.5 -61t-23.5 -55q72 -44 133 -100l-35 -54q-63 63 -127 104
zM411 610h-327v61h327v95h65v-95h326v-61h-326v-245q141 -199 373 -308l-36 -61q-196 101 -337 274v-312h-65v309q-129 -164 -335 -273l-33 57q237 120 368 308v251z" />
    <glyph glyph-name="cid1464" unicode="&#x4f88;" 
d="M305 740q-18 -51 -41 -100.5t-49 -95.5v-590h-64v494q-23 -30 -47.5 -59t-50.5 -56l-22 68q149 159 217 366zM706 420q-14 -19 -29 -37t-33 -35h188v-54q-88 -240 -519 -343l-31 59q83 17 151 38.5t124 49.5q-22 22 -45 43t-46 43l47 33q26 -21 50.5 -43t46.5 -45
q109 68 153 161h-192q-99 -64 -248 -101l-35 52q263 61 364 204zM608 759q-12 -19 -23.5 -34t-23.5 -31h218v-51q-89 -212 -459 -299l-35 50q67 14 123.5 34t104.5 43q-23 24 -43.5 41t-36.5 29l45 34q56 -40 84 -78q98 59 150 143h-206q-71 -65 -166 -111l-39 46
q147 69 247 196z" />
    <glyph glyph-name="cid1466" unicode="&#x4f8b;" 
d="M571 716v-60h-161q-3 -33 -8 -64.5t-11 -61.5h162v-55q-48 -367 -266 -517l-32 56q107 73 168 205q-28 26 -55.5 48.5t-55.5 38.5q-14 -22 -27.5 -43t-29.5 -41l-31 62q102 134 124 372h-69v60h292zM337 359q56 -33 110 -81q17 45 28.5 93t18.5 101h-118
q-8 -30 -18 -58.5t-21 -54.5zM634 -39l-14 61q48 -4 90 -4q40 0 40 40v708h63v-725q0 -80 -81 -80h-98zM122 436q-17 -26 -34 -49.5t-36 -46.5l-22 67q117 158 171 365l60 -27q-15 -53 -34 -102t-42 -96v-593h-63v482zM668 684v-550h-60v550h60z" />
    <glyph glyph-name="cid1468" unicode="&#x4f8f;" 
d="M168 472q-26 -36 -54.5 -69t-59.5 -65l-21 67q147 158 218 366l58 -28q-16 -45 -35 -88t-42 -83v-618h-64v518zM398 563q-13 -28 -27 -54t-30 -50l-55 35q37 58 64.5 120t45.5 131l61 -13q-8 -28 -16 -54t-18 -53h114v145h61v-145h193v-62h-193v-144h235v-62h-187
q62 -151 211 -271l-42 -51q-77 71 -131 150t-86 164v-395h-61v393q-77 -197 -243 -320l-34 55q158 109 230 275h-202v62h249v144h-139z" />
    <glyph glyph-name="cid1469" unicode="&#x4f91;" 
d="M470 667q9 25 16 50.5t14 50.5l62 -10q-6 -24 -13 -46.5t-13 -44.5h310v-61h-332q-13 -29 -25.5 -55.5t-27.5 -51.5h321v-467q0 -69 -82 -72h-119l-16 58q32 -2 61 -3t56 -1q41 0 41 39v91h-274v-189h-58v439q-26 -34 -54.5 -63t-59.5 -55l-39 48q131 113 208 282h-162
v61h186zM449 198h274v92h-274v-92zM723 441h-274v-97h274v97zM133 443q-38 -54 -84 -104l-20 68q131 156 191 362l60 -27q-16 -54 -37 -103t-47 -97v-588h-63v489z" />
    <glyph glyph-name="cid1471" unicode="&#x4f97;" 
d="M146 463q-22 -33 -45.5 -64.5t-48.5 -61.5l-21 66q126 161 182 371l59 -28q-13 -45 -29 -88.5t-36 -82.5v-617h-61v505zM679 428v-296h-244v296h244zM625 373h-134v-186h134v186zM623 -41l-17 62l108 -3q41 0 41 43v614h-393v-720h-62v778h516v-686q0 -88 -81 -88h-112z
M694 577v-58h-273v58h273z" />
    <glyph glyph-name="cid1472" unicode="&#x4f9b;" 
d="M418 579v186h65v-186h159v186h65v-186h118v-61h-118v-208h142v-62h-571v62h140v208h-115v61h115zM642 310v208h-159v-208h159zM668 216q110 -124 171 -220l-57 -38q-29 52 -71 107.5t-94 118.5zM502 183q-67 -130 -163 -227l-55 39q47 45 87 98.5t73 116.5zM146 451
q-44 -58 -97 -113l-22 67q73 82 125.5 173.5t85.5 195.5l60 -27q-33 -101 -88 -195v-597h-64v496z" />
    <glyph glyph-name="cid1473" unicode="&#x4f9d;" 
d="M289 746q-14 -48 -32.5 -92t-41.5 -88v-610h-66v503q-23 -33 -48 -63.5t-53 -61.5l-21 69q140 161 203 371zM549 767q11 -30 20.5 -63.5t18.5 -70.5h230v-60h-203q6 -64 18.5 -121t30.5 -108q37 27 68.5 56.5t57.5 59.5l40 -50q-28 -31 -65 -60.5t-82 -59.5
q61 -156 170 -259l-40 -61q-215 218 -259 603h-12q-18 -53 -41 -100.5t-52 -92.5v-330q46 14 87 30.5t81 36.5l11 -61q-104 -48 -255 -91l-13 54q27 11 27 35v241q-29 -31 -59.5 -60t-63.5 -57l-34 57q172 133 248 338h-198v60h244q-9 34 -19.5 65t-22.5 59z" />
    <glyph glyph-name="cid1474" unicode="&#x4fa0;" 
d="M133 440q-20 -28 -40 -54t-43 -52l-20 68q130 162 189 370l60 -28q-16 -54 -36.5 -104t-46.5 -98v-588h-63v486zM779 547q-26 -94 -69 -164l-54 20q21 31 37.5 71t31.5 88zM357 560q17 -34 32.5 -74.5t30.5 -85.5l-55 -15q-24 84 -62 157zM517 659v108h62v-108h231v-60
h-231v-113q0 -72 -10 -135h259v-60h-235q76 -160 264 -285l-45 -56q-185 142 -266 310q-69 -212 -276 -311l-39 53q203 88 261 289h-218v60h231q7 29 9 59t3 62v127h-230v60h230z" />
    <glyph glyph-name="cid15173" unicode="&#x4fa1;" 
d="M815 -45h-60v59h-382v-56h-61v568h152v143h-170v63h542v-63h-170v-143h149v-571zM523 669v-143h82v143h-82zM464 70v399h-91v-399h91zM523 70h82v399h-82v-399zM666 70h89v399h-89v-399zM280 743q-16 -50 -34.5 -96t-42.5 -90v-603h-64v499q-39 -58 -90 -115l-22 67
q68 80 115.5 170.5t77.5 194.5z" />
    <glyph glyph-name="cid1475" unicode="&#x4fa3;" 
d="M778 727v-296h-414v296h414zM714 668h-291v-180h291v180zM815 -43h-62v54h-368v-55h-63v378h493v-377zM753 69v207h-368v-207h368zM148 453q-44 -60 -96 -113l-20 64q142 158 208 364l57 -26q-34 -104 -85 -191v-597h-64v499z" />
    <glyph glyph-name="cid1477" unicode="&#x4fa6;" 
d="M576 771v-67h251v-58h-251v-83h199v-411h-64v354h-312v-362h-62v419h175v208h64zM630 152q64 -38 115.5 -76.5t93.5 -77.5l-43 -44q-38 36 -90 75.5t-118 81.5zM589 445v-125q-3 -147 -68 -236q-32 -41 -83 -73t-124 -55l-34 55q138 42 193 114q51 76 54 195v125h62z
M150 451q-23 -27 -47 -54.5t-50 -53.5l-20 63q148 157 218 363l58 -27q-20 -54 -43.5 -103t-51.5 -97v-588h-64v497z" />
    <glyph glyph-name="cid1478" unicode="&#x4fa7;" 
d="M558 183h-56v484h-172v-489h-56v544h284v-539zM467 142q37 -36 67.5 -71.5t57.5 -72.5l-45 -43q-22 35 -51.5 72t-68.5 78zM443 622v-284q-4 -155 -46 -248q-43 -88 -135 -135l-33 51q89 47 127 124q32 83 35 208v284h52zM126 448q-36 -58 -74 -108l-21 66
q115 159 166 365l56 -25q-14 -52 -31.5 -98.5t-37.5 -90.5v-602h-58v493zM642 -38l-14 60q23 -3 45 -4t44 -1q34 0 34 40v709h62v-725q0 -79 -75 -79h-96zM676 687v-550h-56v550h56z" />
    <glyph glyph-name="cid1484" unicode="&#x4faf;" 
d="M662 578v99h-319v57h381v-156h110v-59h-550v59h378zM390 373q-17 -24 -36 -46t-40 -40l-37 46q73 67 120 167l56 -13q-7 -14 -13 -28t-14 -28h364v-58h-201q-2 -30 -5.5 -57.5t-9.5 -51.5h254v-57h-214q47 -125 233 -195l-34 -55q-205 89 -256 242q-14 -48 -35 -79
q-64 -94 -213 -164l-39 50q139 61 197 141q9 13 16 27.5t13 32.5h-222v57h240q5 25 9 52.5t6 56.5h-139zM149 461q-22 -33 -46.5 -63.5t-52.5 -60.5l-20 66q132 159 194 364l58 -27q-29 -87 -69 -170v-616h-64v507z" />
    <glyph glyph-name="cid1485" unicode="&#x4fb5;" 
d="M128 440q-18 -26 -37 -51.5t-41 -49.5l-20 68q127 161 184 366l60 -28q-34 -108 -83 -201v-590h-63v486zM317 456v52h383v64h-357v51h357v63h-383v51h441v-281h-441zM821 254h-62v93h-435v-69h422v-52q-23 -40 -58 -75.5t-81 -66.5q98 -45 236 -76l-33 -52
q-158 38 -260 94q-112 -59 -272 -96l-24 56q138 28 238 74q-93 61 -134 139h-35v32h-58v146h556v-147zM420 223q23 -29 54 -57t75 -54q79 48 127 111h-256z" />
    <glyph glyph-name="cid15183" unicode="&#x4fb6;" 
d="M364 434v293h414v-293h-192q-10 -52 -24 -100h253v-377h-62v54h-368v-55h-63v378h177q9 24 14.5 49t10.5 51h-160zM753 69v207h-368v-207h368zM714 668h-291v-176h291v176zM148 452q-42 -58 -96 -114l-20 64q143 160 208 368l57 -27q-17 -52 -38 -99.5t-47 -92.5v-597
h-64v498z" />
    <glyph glyph-name="cid15184" unicode="&#x4fb7;" 
d="M685 314v-221h-213v221h213zM633 263h-109v-120h109v120zM425 676v-96h309v96h-309zM425 445h396q0 -165 -4 -263.5t-9 -138.5q-14 -83 -124 -83q-12 0 -31.5 0.5t-45.5 1.5l-14 54q24 -2 44 -2h39q63 0 74 51q4 27 6 106.5t5 213.5h-337q-6 -241 -112 -420l-47 43
q98 158 100 409v318h432v-213h-372v-77zM312 735q-38 -106 -94 -196v-585h-61v497q-23 -29 -48.5 -57.5t-53.5 -55.5l-21 66q76 78 130 166.5t90 190.5z" />
    <glyph glyph-name="cid1486" unicode="&#x4fbf;" 
d="M836 731v-60h-252v-79h210v-340h-211q-8 -93 -54 -158q142 -73 325 -81l-17 -58q-197 10 -346 95q-73 -60 -207 -95l-33 51q61 16 107.5 36t77.5 43q-67 46 -119 106l48 33q49 -53 111 -98q36 52 45 126h-208v340h210v79h-218v60h531zM734 397h-150v-93h150v93zM523 397
h-149v-93h149v93zM523 450v90h-149v-90h149zM584 450h150v90h-150v-90zM138 448q-19 -30 -40 -59t-44 -55l-21 68q125 159 182 366l57 -26q-14 -50 -31 -95.5t-39 -89.5v-601h-64v492z" />
    <glyph glyph-name="cid15194" unicode="&#x4fc2;" 
d="M301 745q-18 -55 -41 -106t-51 -99v-585h-61v492q-42 -56 -93 -111l-22 68q143 160 208 369zM432 -35l-13 60q22 -3 41 -4.5t39 -1.5q30 0 30 37v219q-49 -4 -98.5 -7.5t-100.5 -7.5l-13 54q5 2 10.5 3t11.5 4q86 38 213 154q-49 -5 -99.5 -10.5t-105.5 -8.5l-12 51
q97 47 156 147q-39 -2 -78.5 -3.5t-80.5 -1.5l-19 55q276 0 462 57l29 -50q-52 -18 -112.5 -30.5t-130.5 -20.5q-53 -93 -117 -145q41 3 82.5 7t82.5 9q23 22 45 45t45 47l58 -23q-183 -190 -316 -282q70 6 137 12.5t133 14.5q-13 21 -28 40t-31 39l47 27q89 -109 137 -192
l-47 -33q-10 19 -21 36t-23 37q-37 -5 -75.5 -9t-76.5 -9v-242q0 -74 -74 -74h-87zM427 185q-27 -56 -59 -105t-70 -90l-47 35q72 75 125 185zM698 221q47 -56 81.5 -104.5t61.5 -91.5l-49 -35q-26 46 -61 96.5t-80 104.5z" />
    <glyph glyph-name="cid1487" unicode="&#x4fc3;" 
d="M138 447q-39 -57 -84 -109l-21 67q130 158 189 363l57 -26q-30 -100 -77 -191v-597h-64v493zM786 733v-285h-181v-143h208v-59h-208v-208q24 -3 52.5 -5.5t62.5 -3.5q41 0 74 0.5t57 1.5l-12 -61h-89q-184 0 -251 40q-79 41 -127 138q-19 -58 -44 -107.5t-54 -89.5
l-41 52q98 142 132 380l60 -10q-5 -40 -12.5 -77t-16.5 -72q9 -28 23 -52.5t29 -46.5q41 -48 94 -71v394h-206v285h450zM724 675h-325v-168h325v168z" />
    <glyph glyph-name="cid1488" unicode="&#x4fc4;" 
d="M277 -39l-14 61q20 -3 38.5 -4t37.5 -1q37 0 37 40v165q-30 -11 -60 -20t-61 -18l-16 64q36 8 70 17t67 22v175h-134v61h134v102q-47 -17 -97 -31l-25 58q144 30 217 105l47 -40q-36 -36 -80 -61v-133h132q-2 56 -3.5 116.5t-1.5 126.5h60q0 -68 1 -128t3 -115h203v-61
h-200q2 -71 8 -131t14 -108q59 82 99 193l49 -27q-26 -73 -59 -133t-72 -108q31 -120 76 -126q27 6 55 145l48 -41q-42 -172 -103 -172q-51 0 -92 70q-19 35 -30 73q-29 -26 -58 -47.5t-62 -37.5l-34 53q74 35 135 99q-4 20 -8 39t-6 40q-8 48 -12.5 102t-6.5 117h-135v-154
q46 18 92 41v-63q-22 -12 -45.5 -22t-46.5 -19v-205q0 -79 -78 -79h-83zM128 451q-18 -29 -38 -56.5t-42 -54.5l-21 68q61 80 104 171t72 195l57 -27q-28 -94 -69 -182v-611h-63v497zM709 742q29 -30 55 -61.5t50 -67.5l-46 -36q-25 38 -50.5 71t-50.5 62z" />
    <glyph glyph-name="cid1490" unicode="&#x4fca;" 
d="M674 732q97 -95 152 -169l-50 -35q-21 28 -45 58q-113 -14 -217 -24.5t-205 -19.5l-12 55q94 34 191 182l65 -20q-36 -51 -73 -90t-73 -67q96 9 166.5 17t116.5 14q-16 19 -32 35l-33 33zM471 486q-73 -84 -180 -148l-37 51q105 59 176 135zM790 354q-89 82 -182 141
l42 39q40 -23 85 -56t99 -78zM399 222q-25 -16 -51 -33t-54 -32l-39 52q189 92 257 229l60 -13q-25 -52 -56 -93h232v-53q-37 -103 -133 -179q102 -54 242 -85l-24 -60q-164 35 -276 106q-110 -65 -279 -107l-30 57q156 34 256 89q-66 56 -105 122zM560 135q83 59 122 142
h-216q-6 -6 -11.5 -10t-9.5 -8q40 -70 115 -124zM146 450q-44 -57 -93 -110l-22 67q141 158 207 366l60 -28q-35 -105 -88 -195v-596h-64v496z" />
    <glyph glyph-name="cid1492" unicode="&#x4fcf;" 
d="M150 451q-23 -29 -46.5 -57.5t-48.5 -55.5l-20 66q141 161 204 365l59 -27q-33 -101 -84 -192v-596h-64v497zM608 766v-246h193v-470q0 -90 -84 -90h-108l-15 62l102 -4q42 0 42 45v89h-330v-198h-64v566h202v246h62zM408 208h330v95h-330v-95zM738 459h-330v-101h330
v101zM376 733q23 -33 44.5 -69.5t41.5 -76.5l-54 -27q-43 84 -87 146zM823 716q-20 -40 -43.5 -79.5t-53.5 -79.5l-50 27q57 77 93 159z" />
    <glyph glyph-name="cid1493" unicode="&#x4fd0;" 
d="M126 450q-17 -27 -36.5 -53t-39.5 -52l-20 69q116 154 168 353l56 -28q-26 -96 -68 -182v-594h-60v487zM392 530v119q-29 -6 -59 -10t-59 -6l-20 55q172 16 288 67l28 -51q-30 -13 -60 -23.5t-60 -17.5v-133h119v-60h-119v-51q30 -34 61 -70.5t63 -79.5l-34 -50
q-53 85 -90 137v-398h-58v415q-55 -141 -153 -256l-26 66q122 128 175 287h-128v60h132zM623 -39l-14 61q27 -3 52.5 -4t49.5 -1q41 0 41 33v712h61v-727q0 -74 -79 -74h-111zM668 681v-544h-59v544h59z" />
    <glyph glyph-name="cid1495" unicode="&#x4fd7;" 
d="M746 -42h-61v48h-272v-48h-60v355h393v-355zM685 64v190h-272v-190h272zM631 758q57 -41 104 -79.5t87 -77.5l-47 -46q-68 76 -186 161zM495 715q-77 -101 -162 -169l-47 43q48 40 88 80.5t73 82.5zM148 450q-43 -58 -95 -112l-22 66q142 159 207 363l59 -28
q-34 -102 -85 -192v-589h-64v492zM574 592q82 -142 274 -247l-36 -55q-172 98 -259 240q-107 -156 -266 -240l-35 55q183 96 283 247h39z" />
    <glyph glyph-name="cid1499" unicode="&#x4fdd;" 
d="M289 746q-15 -50 -35.5 -96t-43.5 -89v-607h-64v502q-23 -31 -46.5 -60.5t-50.5 -57.5l-22 67q140 160 202 368zM759 728v-279h-178v-96h256v-63h-193q78 -133 209 -231l-42 -56q-66 58 -120.5 129.5t-97.5 157.5h-12v-335h-63v335h-12q-88 -184 -222 -287l-36 57
q126 85 208 230h-185v63h247v96h-177v279h418zM697 667h-293v-157h293v157z" />
    <glyph glyph-name="cid1502" unicode="&#x4fe1;" 
d="M136 451q-20 -29 -41.5 -57t-45.5 -55l-20 68q129 160 189 369l60 -28q-16 -51 -36 -98.5t-43 -93.5v-602h-63v497zM547 652q-9 26 -21 51t-25 52l61 15q14 -30 24.5 -56t18.5 -50l-33 -12h279v-62h-577v62h273zM775 519v-58h-419v58h419zM775 394v-58h-419v58h419z
M790 -45h-61v48h-329v-48h-61v308h451v-308zM729 63v139h-329v-139h329z" />
    <glyph glyph-name="cid1505" unicode="&#x4fe8;" 
d="M140 456q-19 -30 -41.5 -59t-46.5 -57l-21 66q131 159 193 364l54 -25q-15 -51 -33.5 -97t-41.5 -91v-603h-63v502zM823 732v-60h-166v-218h180v-58h-474v-142q-6 -189 -92 -300l-47 41q76 95 79 259v200h174v218h-164v60h510zM600 454v218h-65v-218h65zM799 633
q-22 -88 -56 -150l-47 16q30 59 55 145zM376 636q19 -30 33 -63.5t27 -68.5l-47 -21q-14 39 -29 73.5t-30 65.5z" />
    <glyph glyph-name="cid1506" unicode="&#x4fe9;" 
d="M150 468q-23 -35 -47 -67.5t-50 -63.5l-21 66q127 161 185 367l58 -26q-13 -42 -28.5 -83t-34.5 -80v-627h-62v514zM833 712v-60h-169l-3 -128h149v-479q0 -83 -76 -83h-79l-16 62l75 -3q34 0 34 37v410h-89q-2 -16 -2.5 -29.5t-1.5 -26.5l-5 -57q23 -33 46.5 -70
t46.5 -77l-36 -54q-20 43 -36.5 78.5t-30.5 61.5q-24 -122 -76 -209l-38 47q62 113 74 304l2 32h-100l-2 -45q-1 -17 -3 -31.5t-4 -29.5q32 -44 76 -114l-42 -40q-12 26 -23 48.5t-22 42.5q-24 -109 -74 -190l-38 47q65 109 75 291q0 5 0.5 9.5t0.5 11.5h-83v-510h-60v566
h145l2 128h-159v60h542zM605 524q0 30 0.5 61.5t0.5 66.5h-98q0 -38 -1 -68.5t-2 -59.5h100z" />
    <glyph glyph-name="cid1509" unicode="&#x4fee;" 
d="M575 763q-5 -18 -13 -34.5t-15 -32.5h254v-55q-45 -87 -133 -151q39 -17 83.5 -31t95.5 -28l-25 -59q-66 17 -119 36.5t-97 42.5q-93 -50 -221 -82l-25 58q111 26 189 63q-55 42 -89 94q-14 -14 -29 -25.5t-31 -24.5l-35 47q107 77 149 189zM500 626q38 -60 107 -104
q80 51 124 115h-221q-6 -4 -10 -11zM280 743q-16 -51 -35 -97.5t-42 -91.5v-599h-63v498q-19 -29 -41.5 -57.5t-48.5 -55.5l-18 64q130 158 192 365zM339 612v-502h-57v502h57zM682 366q-26 -22 -51 -39t-51 -33q-58 -29 -146 -58l-32 51q37 8 71.5 19.5t64.5 26.5
q26 13 51 28.5t47 32.5zM762 295q-106 -131 -312 -190l-26 55q196 51 296 168zM388 7q151 39 245 97q95 55 163 142l45 -34q-30 -46 -74 -86.5t-105 -74.5q-122 -68 -247 -102z" />
    <glyph glyph-name="cid1510" unicode="&#x4fef;" 
d="M457 350q-15 -18 -30 -35t-31 -34l-18 61q93 106 137 246l57 -26q-11 -32 -24.5 -62t-30.5 -60v-483h-60v393zM717 459v114h62v-114h67v-60h-67v-365q0 -77 -78 -77h-83l-13 60q20 -2 38 -3t36 -1q38 0 38 35v351h-147v60h147zM586 772q9 -20 18.5 -43t17.5 -49h214v-60
h-469v-219q-3 -279 -85 -446l-50 43q68 143 74 403v279h250q-9 23 -19 43t-20 39zM604 340q19 -40 37.5 -84t35.5 -92l-50 -26q-18 50 -36 94t-38 83zM136 457q-20 -31 -41.5 -60t-45.5 -57l-20 68q63 80 107.5 171t73.5 195l58 -27q-13 -47 -31 -91.5t-38 -88.5v-613h-63
v503z" />
    <glyph glyph-name="cid1511" unicode="&#x4ff1;" 
d="M156 456q-24 -32 -49.5 -61.5t-53.5 -57.5l-21 67q149 160 216 366l59 -27q-33 -98 -85 -189v-600h-66v502zM762 198h87v-58h-570v58h90v536h393v-536zM699 198v84h-267v-84h267zM699 336v80h-267v-80h267zM699 469v77h-267v-77h267zM699 598v81h-267v-81h267zM519 93
q-78 -82 -190 -142l-40 50q56 28 102.5 61t84.5 70zM653 133q50 -29 94 -63.5t85 -71.5l-42 -47q-42 41 -85.5 76.5t-87.5 65.5z" />
    <glyph glyph-name="cid15236" unicode="&#x5009;" 
d="M255 384q0 -15 -0.5 -30t-1.5 -30h402v66h-400v-6zM655 509h-400v-68h400v68zM246 270q-27 -177 -131 -312l-49 45q124 146 127 381v179h245q-12 20 -21.5 37t-21.5 33l52 26q17 -23 31 -46.5t27 -49.5h196q-73 37 -137 72.5t-119 72.5q-76 -50 -167 -98.5t-200 -99.5
l-35 56q105 44 198.5 92t178.5 105h50q83 -57 177.5 -105t200.5 -92l-36 -56q-26 13 -49 24t-45 21v-285h-472zM744 -45h-62v37h-376v-37h-64v256h502v-256zM682 46v111h-376v-111h376z" />
    <glyph glyph-name="cid15238" unicode="&#x500b;" 
d="M294 743q-35 -106 -84 -192v-596h-63v496q-22 -29 -45.5 -57.5t-48.5 -55.5l-21 66q140 159 204 365zM823 -44h-58v52h-392v-52h-57v778h507v-778zM765 65v613h-392v-613h392zM542 534v101h56v-101h128v-54h-128v-104h93v-251h-239v251h90v104h-128v54h128zM641 325h-139
v-151h139v151z" />
    <glyph glyph-name="cid1517" unicode="&#x500d;" 
d="M522 681q-16 45 -32 82l63 10q10 -19 17 -42t16 -50h229v-62h-515v62h222zM426 437q-11 35 -25 68t-31 63l62 22q15 -32 30.5 -69.5t29.5 -83.5h120q18 37 33 75.5t28 78.5l61 -21q-12 -37 -25.5 -69.5t-29.5 -63.5h159v-61h-573v61h161zM758 -43h-62v49h-291v-49h-64
v337h417v-337zM696 68v164h-291v-164h291zM136 451q-21 -29 -42.5 -57t-44.5 -55l-22 68q132 160 191 367l60 -27q-16 -51 -35 -98t-42 -92v-603h-65v497z" />
    <glyph glyph-name="cid15241" unicode="&#x5011;" 
d="M145 461q-41 -67 -91 -129l-21 70q117 160 172 368l57 -26q-24 -84 -57 -163v-622h-60v502zM355 451h109v91h-109v-91zM464 682h-109v-88h109v88zM642 450h116v92h-116v-92zM758 680h-116v-86h116v86zM524 396h-169v-437h-62v777h231v-340zM580 396v340h238v-700
q0 -71 -67 -71q-29 0 -56.5 0.5t-53.5 1.5l-16 59q54 -4 104 -4q29 0 29 34v340h-178z" />
    <glyph glyph-name="cid1519" unicode="&#x5012;" 
d="M570 43q-76 -19 -155 -36.5t-164 -31.5l-14 59q37 5 71 11.5t68 12.5v171h-120v59h120v103h63v-103h117v-59h-117v-158q65 15 131 35v-63zM565 732v-61h-155q-21 -67 -39.5 -117t-38.5 -83q40 5 76.5 11t71.5 15q-10 24 -22 47t-24 47l46 31q32 -58 54.5 -106t38.5 -92
l-47 -33l-24 58q-57 -13 -118.5 -22.5t-125.5 -18.5l-16 55q17 1 24 7q35 48 82 201h-87v61h304zM644 -38l-14 62q23 -3 45.5 -4.5t44.5 -1.5q34 0 34 40v705h61v-722q0 -79 -75 -79h-96zM668 687v-549h-59v549h59zM128 459q-33 -59 -75 -117l-22 66q106 160 154 362l57 -26
q-10 -42 -23 -81.5t-29 -78.5v-630h-62v505z" />
    <glyph glyph-name="cid1521" unicode="&#x5018;" 
d="M594 768v-261h218v-462q0 -88 -82 -88h-75l-16 61l70 -2q42 0 42 43v389h-379v-493h-63v552h220v261h65zM674 360v-253h-227v253h227zM617 305h-111v-143h111v143zM814 705q-44 -96 -107 -166l-47 35q60 68 102 158zM384 723q41 -73 72 -157l-55 -24q-16 47 -36 87
t-41 75zM147 449q-43 -56 -94 -111l-22 67q143 159 207 367l60 -28q-34 -103 -88 -197v-593h-63v495z" />
    <glyph glyph-name="cid1522" unicode="&#x5019;" 
d="M270 743q-30 -102 -73 -189v-600h-60v497q-19 -29 -41 -57.5t-44 -56.5l-21 67q125 159 183 365zM332 607v-522h-60v522h60zM671 568v104h-258v59h320v-163h91v-57h-452v57h299zM470 366q-14 -24 -31 -46t-34 -42l-38 47q64 65 102 168l54 -13q-6 -16 -12.5 -30
t-11.5 -27h303v-57h-173q-2 -58 -10 -107h219v-57h-202q31 -54 84.5 -102.5t128.5 -93.5l-41 -51q-151 101 -215 218q-32 -76 -89.5 -131t-140.5 -91l-41 52q166 66 218 199h-172v57h189q11 45 11 98v9h-98z" />
    <glyph glyph-name="cid1523" unicode="&#x501a;" 
d="M528 693q2 13 4 25.5t3 24.5v24h61v-24q-1 -14 -2 -26l-2 -24h226v-58h-241q-3 -6 -5.5 -13.5t-6.5 -13.5q66 -20 127 -44.5t117 -53.5l-35 -54q-60 32 -118.5 59t-118.5 47l-7 -7q-58 -65 -193 -101l-34 54q131 33 180 86q9 9 15 20t13 21h-198v58h215zM849 428v-61h-85
v-337q0 -72 -80 -72h-111l-15 60q29 -2 55 -3t49 -1q39 0 39 32v321h-436v61h584zM597 301v-218h-273v218h273zM537 249h-152v-112h152v112zM141 452q-38 -56 -88 -110l-22 66q133 160 196 363l59 -27q-33 -102 -82 -192v-598h-63v498z" />
    <glyph glyph-name="cid1525" unicode="&#x501f;" 
d="M149 456q-22 -33 -46 -65t-50 -61l-22 66q132 168 191 375l60 -27q-29 -95 -69 -177v-613h-64v502zM413 666v97h63v-97h160v97h63v-97h124v-57h-124v-111h145v-61h-574v61h143v111h-120v57h120zM636 498v111h-160v-111h160zM773 -40h-63v41h-301v-41h-63v408h427v-408z
M710 59v97h-301v-97h301zM710 212v98h-301v-98h301z" />
    <glyph glyph-name="cid1526" unicode="&#x5021;" 
d="M769 733v-321h-413v321h413zM706 545h-291v-77h291v77zM706 599v79h-291v-79h291zM814 -45h-62v39h-380v-39h-62v387h504v-387zM752 53v88h-380v-88h380zM752 198v88h-380v-88h380zM147 450q-23 -31 -47 -59.5t-51 -57.5l-22 69q73 82 125.5 173.5t85.5 197.5l59 -28
q-17 -52 -38.5 -100.5t-48.5 -94.5v-596h-63v496z" />
    <glyph glyph-name="cid1531" unicode="&#x502a;" 
d="M376 373h353v119h-149v58h149v117h-138v56h197v-407h-128v-248q0 -40 34 -40h45q22 0 32 15q13 21 17 112l61 -18q-10 -123 -33 -148q-24 -22 -65 -22h-77q-78 0 -78 87v262h-92q-4 -75 -16.5 -129t-31.5 -91q-48 -81 -158 -142l-39 50q98 52 138 119q17 32 28.5 80
t15.5 113h-124v386q48 10 91.5 26.5t84.5 38.5l36 -51q-63 -32 -153 -60v-105h146v-59h-146v-119zM137 451q-19 -29 -41.5 -57t-46.5 -56l-20 68q131 159 189 367l60 -27q-15 -50 -33.5 -97t-41.5 -91v-604h-66v497z" />
    <glyph glyph-name="cid15254" unicode="&#x502b;" 
d="M367 547q-23 -13 -45 -24.5t-45 -22.5l-35 54q179 81 276 209h55q82 -117 277 -207l-35 -53q-25 11 -47.5 21.5t-42.5 24.5v-44h-358v42zM702 562q-50 34 -89 68t-67 72q-66 -80 -155 -140h311zM352 -42h-61v473h497v-397q0 -74 -68 -74h-76l-10 32h-53v193h-86v-193h-54
v193h-89v-227zM699 16q31 0 31 30v139h-94v-167zM730 373h-94v-130h94v130zM495 373v-130h86v130h-86zM352 373v-130h89v130h-89zM289 745q-17 -52 -38 -101.5t-47 -96.5v-593h-64v496q-19 -28 -41 -54.5t-46 -51.5l-21 67q138 159 198 362z" />
    <glyph glyph-name="cid1535" unicode="&#x503a;" 
d="M536 719v48h63v-48h219v-54h-219v-56h197v-52h-197v-54h250v-56h-567v56h254v54h-195v52h195v56h-219v54h219zM789 100h-63v233h-314v-239h-64v297h441v-291zM603 294q0 -108 -38 -182q-46 -96 -223 -160l-41 51q152 51 202 127q37 64 39 164h61zM620 110q62 -22 118 -48
t108 -56l-36 -55q-111 68 -224 110zM146 460q-44 -61 -97 -120l-20 68q134 159 197 365l60 -28q-31 -92 -76 -180v-611h-64v506z" />
    <glyph glyph-name="uni503C" unicode="&#x503c;" 
d="M608 763q-1 -20 -2 -39.5t-3 -39.5h220v-58h-227q-2 -19 -5.5 -39t-6.5 -37h180v-510h85v-58h-582v58h92v510h163q2 18 5 37.5t7 38.5h-228v58h233q6 45 7 87zM703 40v78h-283v-78h283zM703 170v74h-283v-74h283zM703 295v74h-283v-74h283zM703 420v72h-283v-72h283z
M159 471q-23 -36 -47.5 -68.5t-52.5 -62.5l-22 67q134 159 192 363l57 -26q-12 -43 -29 -84t-37 -81v-624h-61v516z" />
    <glyph glyph-name="cid1537" unicode="&#x503e;" 
d="M450 458l-100 -13v-284q26 11 50.5 25t47.5 31l11 -56q-79 -53 -177 -89l-17 57q24 11 24 46v582h61v-254l100 12v-57zM262 743q-30 -88 -69 -165v-621h-61v519q-19 -26 -38.5 -51t-40.5 -49l-20 64q60 71 103.5 153.5t70.5 175.5zM848 735v-58h-164q-5 -27 -9 -51.5
t-10 -48.5h153v-425h-61v368h-209v-368h-59v425h114q12 48 17 100h-160v58h388zM713 133q42 -35 77 -69t64 -70l-44 -42q-24 35 -57.5 71t-77.5 73zM683 466v-192q-5 -129 -58 -207q-27 -37 -70.5 -64.5t-105.5 -47.5l-33 51q113 35 161 100q43 62 46 168v192h60z" />
    </font>
</defs>
</svg>
