<?xml version="1.0" standalone="no"?>
<!DOCTYPE svg PUBLIC "-//W3C//DTD SVG 1.1//EN" "http://www.w3.org/Graphics/SVG/1.1/DTD/svg11.dtd" >
<svg>
<metadata>
Created by FontForge 20120731 at Thu Aug 22 20:31:52 2019
 By www
Copyright (c) 2015 DynaComware. All rights reserved.
</metadata>
<defs>
<font id="SFProPingFangSC-Thin" horiz-adv-x="899" >
  <font-face 
    font-family="PingFang SC"
    font-weight="200"
    font-stretch="normal"
    units-per-em="1000"
    panose-1="2 11 2 0 0 0 0 0 0 0"
    ascent="860"
    descent="-140"
    bbox="-1 -134 992 859"
    underline-thickness="24"
    underline-position="-123"
    unicode-range="U+000D-2F894"
  />
<missing-glyph 
 />
    <glyph glyph-name=".notdef" 
 />
    <glyph glyph-name=".null" horiz-adv-x="0" 
 />
    <glyph glyph-name="nonmarkingreturn" horiz-adv-x="333" 
 />
    <glyph glyph-name="cid1" horiz-adv-x="0" 
 />
    <glyph glyph-name="cid2" unicode="&#xd;" horiz-adv-x="298" 
 />
    <glyph glyph-name="cid98" horiz-adv-x="0" 
 />
    <glyph glyph-name="cid112" unicode="&#xad;" horiz-adv-x="298" 
d="M89 292h225v-32h-225v32z" />
    <glyph glyph-name="cid120" unicode="&#xb5;" horiz-adv-x="478" 
d="M145 508v-283q0 -163 142 -163q61 0 106 47q43 43 46 117v282h33v-465h-33v87q-28 -49 -68 -76q-39 -23 -88 -23q-98 0 -138 77v-242h-36v642h36z" />
    <glyph glyph-name="cid224" unicode="&#x138;" horiz-adv-x="448" 
d="M109 508h36v-254l285 254h49l-203 -181l224 -284h-46l-204 261l-105 -95v-166h-36v465z" />
    <glyph glyph-name="cid228" unicode="&#x140;" horiz-adv-x="287" 
d="M292 396q15 0 22 -7q6 -8 6 -21q0 -15 -6 -22q-7 -8 -22 -8t-21 8q-9 7 -9 22q0 13 9 21q6 7 21 7zM164 697v-654h-34v654h34z" />
    <glyph glyph-name="cid233" unicode="&#x149;" horiz-adv-x="563" 
d="M111 697l-12 -169h-28v169h40zM385 521q172 0 172 -193v-285h-35v284q0 161 -141 161q-64 0 -105 -45q-45 -46 -47 -118v-282h-35v465h35v-84q20 42 63 71q39 26 93 26z" />
    <glyph glyph-name="cid234" unicode="&#x14a;" horiz-adv-x="625" 
d="M159 684l417 -584h2v584h36v-709q0 -109 -114 -109h-44v32h43q79 0 79 79v68l-426 596h-1v-598h-36v641h44z" />
    <glyph glyph-name="cid235" unicode="&#x14b;" horiz-adv-x="478" 
d="M301 521q171 0 171 -193v-353q0 -109 -112 -109h-43v32h42q79 0 79 79v350q0 161 -143 161q-63 0 -105 -45q-44 -46 -45 -118v-282h-36v465h36v-84q19 42 63 71q20 13 44 19.5t49 6.5z" />
    <glyph glyph-name="cid262" unicode="&#x17f;" horiz-adv-x="330" 
d="M376 684v-31h-74q-43 0 -60 -21q-18 -20 -18 -68v-521h-35v433h-133v32h133v56q0 61 26 89q28 31 86 31h75z" />
    <glyph glyph-name="cid274" unicode="&#x2bb;" horiz-adv-x="448" 
d="M324 762q-33 -7 -52 -35q-14 -19 -14 -55q2 4 18 4q14 0 25 -12q11 -8 11 -26q0 -15 -10 -26t-28 -11q-23 0 -36 19q-10 17 -10 47q0 47 27 80q28 35 69 43v-28z" />
    <glyph glyph-name="cid278" unicode="&#x2c9;" horiz-adv-x="448" 
d="M151 797h253v-25h-253v25z" />
    <glyph glyph-name="cid425" unicode="&#x2ca;" horiz-adv-x="448" 
d="M304 852h44l-114 -130h-30z" />
    <glyph glyph-name="cid426" unicode="&#x2cb;" horiz-adv-x="448" 
d="M204 852h46l98 -130h-29z" />
    <glyph glyph-name="cid29219" unicode="&#x2cd;" horiz-adv-x="448" 
d="M133 -50h287v-33h-287v33z" />
    <glyph glyph-name="cid285" unicode="&#x2ee;" horiz-adv-x="448" 
d="M345 792q21 0 35 -20q9 -15 9 -45q0 -45 -26 -81q-28 -33 -70 -42v27q36 12 50 34q17 23 17 56q-3 -2 -18 -2q-14 0 -25 10q-10 10 -10 27t9 26q10 10 29 10zM216 792q21 0 34 -20q11 -14 11 -45q0 -46 -27 -81q-26 -33 -69 -42v27q36 12 50 34q17 25 17 56q-4 -2 -18 -2
t-25 10q-10 10 -10 27t9 27q10 9 28 9z" />
    <glyph glyph-name="cid311" unicode="&#x338;" horiz-adv-x="448" 
d="M416 519l23 -14l-303 -474l-21 14z" />
    <glyph glyph-name="cid312" unicode="&#x340;" horiz-adv-x="448" 
d="M204 692h46l98 -131h-29z" />
    <glyph glyph-name="cid313" unicode="&#x341;" horiz-adv-x="448" 
d="M304 692h44l-114 -131h-30z" />
    <glyph glyph-name="cid314" unicode="&#x344;" horiz-adv-x="448" 
d="M399 823l-115 -131h-28l99 131h44zM347 644q15 0 22 -7t7 -23q0 -13 -7 -22q-9 -6 -22 -6q-15 0 -21 6q-9 11 -9 22q0 13 9 23q5 7 21 7zM205 644q15 0 22 -7q8 -7 8 -23q0 -13 -8 -22q-10 -6 -22 -6q-15 0 -21 6q-8 11 -8 22q0 13 8 23q5 7 21 7z" />
    <glyph glyph-name="cid539" unicode="&#x2010;" horiz-adv-x="298" 
d="M89 383h225v-33h-225v33z" />
    <glyph glyph-name="cid325" unicode="&#x2015;" 
d="M52 384h899v-35h-899v35z" />
    <glyph glyph-name="cid540" unicode="&#x2016;" horiz-adv-x="448" 
d="M157 739h28v-745h-28v745zM368 739h28v-745h-28v745z" />
    <glyph glyph-name="cid326" unicode="&#x2018;" horiz-adv-x="270" 
d="M254 762q-34 -7 -52 -35q-15 -19 -15 -55q1 4 17 4q15 0 25 -12q10 -9 10 -26q0 -14 -8 -26q-12 -11 -29 -11q-22 0 -35 19q-10 17 -10 47q0 47 27 80q28 35 70 43v-28z" />
    <glyph glyph-name="cid327" unicode="&#x2019;" horiz-adv-x="270" 
d="M173 792q20 0 33 -20q10 -15 10 -45q0 -47 -26 -81q-28 -34 -69 -42v27q35 12 50 35q17 22 17 55q-4 -2 -17 -2q-15 0 -25 10q-12 10 -12 27q0 16 10 26q9 10 29 10z" />
    <glyph glyph-name="cid329" unicode="&#x201c;" horiz-adv-x="399" 
d="M382 762q-34 -7 -52 -35q-15 -19 -15 -55q2 4 17 4t27 -12q9 -9 9 -26q0 -16 -9 -26q-6 -5 -13 -8t-16 -3q-23 0 -35 21q-10 14 -10 45q0 47 28 80q26 35 69 43v-28zM254 762q-34 -7 -52 -35q-15 -19 -15 -55q1 4 17 4q15 0 25 -12q10 -9 10 -26q0 -14 -8 -26
q-12 -11 -29 -11q-22 0 -35 19q-10 17 -10 47q0 47 27 80q28 35 70 43v-28z" />
    <glyph glyph-name="cid330" unicode="&#x201d;" horiz-adv-x="399" 
d="M301 792q21 0 34 -20q11 -14 11 -45q0 -46 -28 -81q-28 -34 -68 -42v27q34 12 51 35q15 23 15 55q-3 -2 -16 -2q-16 0 -26 10q-12 11 -12 27t10 27q10 9 29 9zM173 792q20 0 33 -20q10 -15 10 -45q0 -47 -26 -81q-28 -34 -69 -42v27q35 12 50 35q17 22 17 55
q-4 -2 -17 -2q-15 0 -25 10q-12 10 -12 27q0 16 10 26q9 10 29 10z" />
    <glyph glyph-name="cid29220" unicode="&#x2027;" horiz-adv-x="448" 
d="M277 429q25 0 41 -18q20 -17 20 -43q0 -23 -20 -43q-16 -19 -41 -19q-26 0 -43 19q-19 19 -19 43q0 26 19 43q17 18 43 18z" />
    <glyph glyph-name="cid544" unicode="&#x2035;" horiz-adv-x="448" 
d="M204 852h46l98 -130h-29z" />
    <glyph glyph-name="cid545" unicode="&#x203b;" 
d="M500 679q18 0 27 -11q10 -9 10 -25q0 -14 -10 -25q-10 -10 -27 -10q-14 0 -25 10q-10 11 -10 25q0 18 10 25q10 11 25 11zM500 391l235 233l23 -23l-234 -233l234 -235l-23 -23l-235 234l-233 -234l-23 23l233 235l-233 233l23 23zM226 402q15 0 24 -9q11 -11 11 -25
q0 -18 -11 -25q-11 -12 -24 -12q-17 0 -25 12q-12 10 -12 25q0 14 12 25q8 9 25 9zM777 402q18 0 27 -9q10 -11 10 -25q0 -18 -10 -25q-10 -12 -27 -12q-15 0 -25 12q-10 8 -10 25q0 15 10 25q9 9 25 9zM500 126q18 0 27 -9q10 -10 10 -25q0 -16 -10 -27q-10 -9 -27 -9
q-14 0 -25 9q-10 9 -10 27q0 16 10 25t25 9z" />
    <glyph glyph-name="cid546" unicode="&#x2103;" horiz-adv-x="824" 
d="M179 785q45 0 76 -33q30 -30 30 -74t-30 -75q-31 -30 -76 -30q-44 0 -74 30q-31 30 -31 75q0 46 31 74q30 33 74 33zM179 758q-33 0 -55 -23q-24 -24 -24 -57q0 -32 24 -55q22 -24 55 -24t56 24q11 12 17.5 25t6.5 30q0 31 -24 57q-22 23 -56 23zM568 697q99 0 170 -54
q78 -57 89 -149h-33q-13 80 -78 125q-64 45 -148 45q-126 0 -199 -88q-68 -86 -68 -216q0 -127 68 -210q70 -86 191 -86q87 0 152 48q70 53 90 149h34q-21 -111 -101 -174q-74 -56 -175 -56q-136 0 -218 99q-76 90 -76 230q0 143 76 237q83 100 226 100z" />
    <glyph glyph-name="cid548" unicode="&#x2109;" horiz-adv-x="763" 
d="M179 785q45 0 76 -33q30 -30 30 -74t-30 -75q-31 -30 -76 -30q-44 0 -74 30q-31 30 -31 75q0 46 31 74q30 33 74 33zM179 758q-33 0 -55 -23q-24 -24 -24 -57q0 -32 24 -55q22 -24 55 -24t56 24q11 12 17.5 25t6.5 30q0 31 -24 57q-22 23 -56 23zM776 684v-31h-370v-261
h347v-33h-347v-316h-36v641h406z" />
    <glyph glyph-name="cid365" unicode="&#x2126;" horiz-adv-x="645" 
d="M374 697q123 0 203 -88q80 -87 80 -220q0 -214 -168 -313h163v-33h-213v39q44 23 76 51t55 61q52 78 52 195q0 118 -71 198q-73 77 -177 77q-106 0 -175 -77q-73 -79 -73 -198q0 -118 53 -195q46 -68 131 -112v-39h-214v33h164q-168 98 -168 313q0 134 79 220
q82 88 203 88z" />
    <glyph glyph-name="cid366" unicode="&#x212b;" horiz-adv-x="565" 
d="M336 859q29 0 51 -22q22 -24 22 -53q0 -28 -22 -52q-24 -22 -51 -22q-31 0 -53 22t-22 52q0 31 22 53q21 22 53 22zM336 837q-21 0 -38 -15q-16 -16 -16 -38q0 -21 16 -37q16 -15 38 -15t36 14q16 16 16 38t-16 38q-17 15 -36 15zM357 684l260 -641h-39l-81 203h-323
l-82 -203h-40l261 641h44zM485 279l-148 369h-3l-148 -369h299z" />
    <glyph glyph-name="cid367" unicode="&#x212e;" horiz-adv-x="731" 
d="M417 615q134 0 227 -85q91 -88 91 -212v-18h-565v-136q39 -60 102 -94q66 -34 145 -34q88 0 159 43q34 20 62 50t46 67h28q-42 -89 -119 -136q-82 -49 -176 -49q-133 0 -224 83q-93 86 -93 219t93 218q90 84 224 84zM417 590q-41 0 -76 -7.5t-69 -26.5q-64 -32 -102 -95
v-136h497v134q-38 61 -103 96q-67 35 -147 35z" />
    <glyph glyph-name="cid550" unicode="&#x2160;" 
d="M485 684h34v-641h-34v641z" />
    <glyph glyph-name="cid551" unicode="&#x2161;" 
d="M374 684h35v-641h-35v641zM593 684h34v-641h-34v641z" />
    <glyph glyph-name="cid552" unicode="&#x2162;" 
d="M272 684h36v-641h-36v641zM485 684h34v-641h-34v641zM694 684h35v-641h-35v641z" />
    <glyph glyph-name="cid553" unicode="&#x2163;" 
d="M191 684h36v-641h-36v641zM338 684h38l213 -602h1l212 602h39l-227 -641h-47z" />
    <glyph glyph-name="cid554" unicode="&#x2164;" 
d="M229 684h41l230 -605h1l231 605h41l-249 -641h-47z" />
    <glyph glyph-name="cid555" unicode="&#x2165;" 
d="M161 684h40l211 -602h2l211 602h39l-227 -641h-48zM775 684h35v-641h-35v641z" />
    <glyph glyph-name="cid556" unicode="&#x2166;" 
d="M98 684h39l190 -594h2l189 594h39l-209 -641h-42zM645 684h35v-641h-35v641zM800 684h36v-641h-36v641z" />
    <glyph glyph-name="cid557" unicode="&#x2167;" 
d="M83 684h39l156 -589h2l157 589h39l-175 -641h-43zM563 684h34v-641h-34v641zM697 684h34v-641h-34v641zM834 684h34v-641h-34v641z" />
    <glyph glyph-name="cid558" unicode="&#x2168;" 
d="M177 684h36v-641h-36v641zM343 684h45l202 -277l201 277h45l-224 -306l244 -335h-45l-221 307l-222 -307h-45l245 335z" />
    <glyph glyph-name="cid559" unicode="&#x2169;" 
d="M255 684h46l199 -278l202 278h46l-226 -306l247 -335h-46l-223 307l-220 -307h-46l245 335z" />
    <glyph glyph-name="cid560" unicode="&#x216a;" 
d="M166 684h45l201 -278l202 278h44l-224 -306l245 -335h-45l-222 307l-222 -307h-44l245 335zM788 684h38v-641h-38v641z" />
    <glyph glyph-name="cid561" unicode="&#x216b;" 
d="M112 684h45l171 -273l171 273h45l-194 -307l210 -334h-43l-189 301l-188 -301h-44l210 334zM658 684h36v-641h-36v641zM813 684h37v-641h-37v641z" />
    <glyph glyph-name="cid562" unicode="&#x2170;" 
d="M500 666q17 0 27 -10q10 -11 10 -25q0 -16 -10 -25q-10 -12 -27 -12q-14 0 -25 12q-10 8 -10 25q0 15 10 25q11 10 25 10zM518 508v-465h-33v465h33z" />
    <glyph glyph-name="cid563" unicode="&#x2171;" 
d="M393 666q15 0 25 -10q12 -11 12 -25q0 -16 -12 -25q-10 -12 -25 -12t-25 12q-11 9 -11 25q0 14 11 25q10 10 25 10zM609 666q15 0 25 -10q12 -11 12 -25q0 -16 -12 -25q-10 -12 -25 -12q-16 0 -23 12q-12 9 -12 25q0 14 12 25q7 10 23 10zM410 508v-465h-35v465h35z
M626 508v-465h-34v465h34z" />
    <glyph glyph-name="cid564" unicode="&#x2172;" 
d="M302 666q14 0 27 -10q9 -12 9 -25q0 -16 -10 -25q-11 -12 -26 -12q-14 0 -25 12q-11 9 -11 25q0 14 11 25q11 10 25 10zM500 666q17 0 27 -10q10 -11 10 -25q0 -16 -10 -25q-10 -12 -27 -12q-14 0 -25 12q-10 8 -10 25q0 15 10 25q11 10 25 10zM701 666q13 0 26 -10
q9 -12 9 -25q0 -14 -9 -25q-11 -12 -26 -12q-17 0 -27 12q-10 9 -10 25q0 14 10 25q10 10 27 10zM319 508v-465h-35v465h35zM518 508v-465h-33v465h33zM718 508v-465h-36v465h36z" />
    <glyph glyph-name="cid565" unicode="&#x2173;" 
d="M257 666q13 0 26 -10q9 -12 9 -25q0 -14 -9 -25q-12 -12 -26 -12q-16 0 -26 12q-11 9 -11 25q0 14 11 25q10 10 26 10zM274 508v-465h-36v465h36zM438 508l159 -420l158 420h41l-181 -465h-37l-181 465h41z" />
    <glyph glyph-name="cid566" unicode="&#x2174;" 
d="M303 508h38l159 -420l160 420h40l-180 -465h-37z" />
    <glyph glyph-name="cid567" unicode="&#x2175;" 
d="M245 508l161 -420l159 420h38l-179 -465h-38l-180 465h39zM747 666q13 0 26 -10q10 -11 10 -25q0 -16 -10 -25q-12 -12 -26 -12q-16 0 -26 12q-12 11 -12 25q0 13 12 25q10 10 26 10zM764 508v-465h-35v465h35z" />
    <glyph glyph-name="cid568" unicode="&#x2176;" 
d="M633 666q15 0 25 -10q11 -11 11 -25q0 -16 -11 -25q-10 -12 -25 -12q-17 0 -25 12q-11 11 -11 25q0 13 11 25q8 10 25 10zM786 666q17 0 27 -10q10 -11 10 -25t-12 -25q-9 -12 -25 -12q-14 0 -25 12q-10 9 -10 25q0 14 10 25q11 10 25 10zM153 508l160 -420l159 420h39
l-180 -465h-38l-180 465h40zM650 508v-465h-34v465h34zM805 508v-465h-35v465h35z" />
    <glyph glyph-name="cid569" unicode="&#x2177;" 
d="M544 666q16 0 26 -10q10 -13 10 -25q0 -13 -10 -25t-26 -12q-15 0 -26 12q-8 8 -8 25q0 15 8 25q11 10 26 10zM678 666q15 0 25 -10q11 -12 11 -25q0 -14 -11 -25q-10 -12 -25 -12q-17 0 -24 12q-10 9 -10 25q0 14 10 25q7 10 24 10zM811 666q17 0 27 -10q11 -13 11 -25
q0 -13 -11 -25q-10 -12 -27 -12q-14 0 -25 12q-10 9 -10 25q0 14 10 25q11 10 25 10zM139 508l137 -413l136 413h38l-157 -465h-35l-157 465h38zM562 508v-465h-35v465h35zM695 508v-465h-35v465h35zM829 508v-465h-34v465h34z" />
    <glyph glyph-name="cid570" unicode="&#x2178;" 
d="M251 666q15 0 26 -10q11 -11 11 -25q0 -16 -11 -25q-11 -12 -26 -12t-25 12q-11 9 -11 25q0 14 11 25q10 10 25 10zM268 508v-465h-34v465h34zM441 508l148 -193l147 193h42l-169 -219l189 -246h-43l-166 220l-168 -220h-40l187 246l-170 219h43z" />
    <glyph glyph-name="cid571" unicode="&#x2179;" 
d="M312 508h42l146 -193l148 193h44l-170 -219l187 -246h-41l-168 220l-165 -220h-43l187 246z" />
    <glyph glyph-name="cid375" unicode="&#x2206;" horiz-adv-x="565" 
d="M314 684h41l249 -641h-540zM335 643l-219 -566h438z" />
    <glyph glyph-name="cid593" unicode="&#x2236;" horiz-adv-x="448" 
d="M277 684q15 0 26 -9q10 -10 10 -26q0 -15 -10 -25q-11 -11 -26 -11q-16 0 -27 11q-9 9 -9 25q0 17 9 26q11 9 27 9zM277 116q15 0 26 -11q10 -10 10 -25t-10 -26q-11 -11 -26 -11q-16 0 -27 11q-9 10 -9 26t9 25q11 11 27 11z" />
    <glyph glyph-name="cid388" unicode="&#x22c5;" horiz-adv-x="301" 
d="M202 428q24 0 43 -17q17 -17 17 -43q0 -24 -17 -43q-19 -17 -43 -17q-25 0 -43 17q-18 19 -18 43q0 26 18 43t43 17z" />
    <glyph glyph-name="cid8004" unicode="&#x9f99;" 
d="M600 -30q-54 0 -54 68v83q-44 -28 -89 -50.5t-95 -41.5l-17 27q112 39 201 103v375h-140q-7 -52 -14 -98.5t-18 -89.5q-61 -236 -261 -380l-17 25q180 130 243 341q13 46 21.5 96.5t13.5 105.5h-262v31h264q6 49 8 101.5t2 107.5h30q0 -55 -2 -107.5t-6 -101.5h487v-31
h-319v-354q130 102 212 263l29 -16q-94 -178 -241 -285v-99q0 -42 33 -42h178q33 0 45 20q19 30 23 162l30 -10q-7 -139 -30 -177q-19 -26 -61 -26h-194zM617 769q52 -33 94.5 -66.5t78.5 -67.5l-21 -22q-34 33 -76.5 67t-97.5 69z" />
    <glyph glyph-name="cid8004" unicode="&#x2ef0;" 
d="M600 -30q-54 0 -54 68v83q-44 -28 -89 -50.5t-95 -41.5l-17 27q112 39 201 103v375h-140q-7 -52 -14 -98.5t-18 -89.5q-61 -236 -261 -380l-17 25q180 130 243 341q13 46 21.5 96.5t13.5 105.5h-262v31h264q6 49 8 101.5t2 107.5h30q0 -55 -2 -107.5t-6 -101.5h487v-31
h-319v-354q130 102 212 263l29 -16q-94 -178 -241 -285v-99q0 -42 33 -42h178q33 0 45 20q19 30 23 162l30 -10q-7 -139 -30 -177q-19 -26 -61 -26h-194zM617 769q52 -33 94.5 -66.5t78.5 -67.5l-21 -22q-34 33 -76.5 67t-97.5 69z" />
    <glyph glyph-name="cid7771" unicode="&#x9ad8;" 
d="M491 778q19 -41 34 -90h369v-31h-786v31h387q-8 23 -17.5 44.5t-17.5 38.5zM675 -40l-6 30l74 -2q65 0 65 54v274h-615v-358h-29v387h674v-308q0 -77 -86 -77h-77zM738 575v-155h-473v155h473zM707 547h-412v-100h412v100zM669 235v-164h-333v164h333zM639 209h-275v-113
h275v113z" />
    <glyph glyph-name="cid7771" unicode="&#x2fbc;" 
d="M491 778q19 -41 34 -90h369v-31h-786v31h387q-8 23 -17.5 44.5t-17.5 38.5zM675 -40l-6 30l74 -2q65 0 65 54v274h-615v-358h-29v387h674v-308q0 -77 -86 -77h-77zM738 575v-155h-473v155h473zM707 547h-412v-100h412v100zM669 235v-164h-333v164h333zM639 209h-275v-113
h275v113z" />
    <glyph glyph-name="cid821" unicode="&#x3001;" horiz-adv-x="572" 
d="M133 157q43 -29 97 -86q22 -24 40.5 -45t31.5 -41l-24 -22q-30 42 -71 87q-26 29 -50 49.5t-45 35.5z" />
    <glyph glyph-name="cid822" unicode="&#x3002;" horiz-adv-x="569" 
d="M211 161q41 0 73 -30q33 -31 33 -73q0 -44 -33 -74q-32 -29 -73 -29q-44 0 -75 28q-31 30 -31 75q0 47 31 73q30 30 75 30zM211 133q-32 0 -55 -22q-22 -21 -22 -53q0 -31 22 -53q23 -22 55 -22q29 0 54 22q23 23 23 53q0 32 -23 52q-25 23 -54 23z" />
    <glyph glyph-name="cid824" unicode="&#x3005;" 
d="M490 760q-19 -62 -43.5 -117.5t-50.5 -105.5h426v-25q-94 -232 -270 -357q51 -41 96 -83t82 -83l-23 -22q-64 71 -150 144.5t-194 151.5l21 18q40 -26 75.5 -53t67.5 -53q87 60 151.5 142.5t107.5 187.5h-406q-79 -133 -178 -224l-22 22q92 88 162 202.5t120 261.5z" />
    <glyph glyph-name="cid829" unicode="&#x300a;" horiz-adv-x="623" 
d="M459 786l29 -14l-178 -404l178 -407l-29 -13l-185 420zM590 786l30 -14l-178 -404l178 -407l-30 -13l-184 420z" />
    <glyph glyph-name="cid830" unicode="&#x300b;" horiz-adv-x="686" 
d="M135 786l184 -418l-184 -420l-29 13l178 407l-178 404zM267 786l185 -418l-185 -420l-30 13l180 407l-180 404z" />
    <glyph glyph-name="cid831" unicode="&#x300c;" horiz-adv-x="575" 
d="M324 786h274v-30h-241v-520h-33v550z" />
    <glyph glyph-name="cid832" unicode="&#x300d;" horiz-adv-x="626" 
d="M320 498h34v-550h-275v31h241v519z" />
    <glyph glyph-name="cid1246" unicode="&#x4e00;" 
d="M101 389h799v-31h-799v31z" />
    <glyph glyph-name="cid1247" unicode="&#x4e01;" 
d="M884 697v-30h-360v-624q0 -77 -76 -77h-140l-6 29q36 -1 70 -1.5t67 -0.5q55 0 55 59v615h-374v30h764z" />
    <glyph glyph-name="cid1248" unicode="&#x4e03;" 
d="M898 519l-457 -85v-380q0 -42 38 -42h274q38 0 56 22q16 23 22 164l29 -9q-5 -146 -27 -178q-20 -30 -74 -30h-287q-62 0 -62 69v379l-305 -57l-5 29l310 58v309h31v-305l453 86z" />
    <glyph glyph-name="cid1249" unicode="&#x4e07;" 
d="M889 701v-31h-470v-35q0 -102 -10 -188h383q-4 -341 -35 -409q-33 -68 -116 -68q-20 0 -46 1t-55 1l-9 31q32 -2 57 -2h45q83 1 103 68q19 65 25 348h-355q-20 -129 -60 -219q-68 -155 -226 -240l-18 27q155 86 224 240q62 155 62 410v35h-276v31h777z" />
    <glyph glyph-name="cid1250" unicode="&#x4e08;" 
d="M581 608q0 4 0.5 7.5t0.5 8.5v148h31v-164h273v-31h-274q-12 -235 -119 -382q-4 -4 -4 -5q161 -130 418 -202l-16 -27q-131 39 -235.5 89t-185.5 117q-118 -129 -358 -208l-16 26q232 73 351 202q-153 134 -211 314l28 10q56 -178 201 -302l11 12q94 144 104 356h-459v31
h460z" />
    <glyph glyph-name="cid1251" unicode="&#x4e09;" 
d="M166 693h671v-29h-671v29zM227 380h549v-30h-549v30zM99 45h804v-31h-804v31z" />
    <glyph glyph-name="cid1252" unicode="&#x4e0a;" 
d="M442 773h33v-290h332v-30h-332v-422h423v-30h-791v30h335v742z" />
    <glyph glyph-name="cid1253" unicode="&#x4e0b;" 
d="M895 714v-30h-402v-164q85 -46 172 -98.5t176 -115.5l-18 -27q-196 138 -330 209v-533h-30v729h-357v30h789z" />
    <glyph glyph-name="cid1255" unicode="&#x4e0d;" 
d="M875 716v-30h-298q-12 -31 -27.5 -60t-31.5 -59v-611h-33v563q-66 -92 -155 -172.5t-205 -149.5l-20 26q323 191 439 463h-416v30h747zM629 481q80 -65 147 -128.5t122 -129.5l-22 -23q-102 125 -270 259z" />
    <glyph glyph-name="cid1256" unicode="&#x4e0e;" 
d="M338 776l-14 -132h512v-31h-516l-19 -177h507q0 -181 -11 -283.5t-31 -131.5q-43 -55 -178 -55q-26 0 -52.5 0.5t-52.5 1.5l-10 27q39 -1 65.5 -1.5t41.5 -0.5q143 0 168 60q29 59 29 353h-513l44 373zM661 226v-30h-520v30h520z" />
    <glyph glyph-name="cid1258" unicode="&#x4e11;" 
d="M729 691h-312l-33 -298h321zM353 393l35 298h-212v31h584l-55 -703h189v-30h-786v30h202l39 343h-161v31h165zM340 19h333l29 343h-321z" />
    <glyph glyph-name="cid1259" unicode="&#x4e13;" 
d="M365 485q21 70 39 145h-241v29h246q7 30 13 59t12 60l31 -5q-6 -30 -12 -58.5t-12 -55.5h407v-29h-414q-9 -41 -18 -76t-19 -69h503v-29h-512q-13 -41 -25.5 -79t-24.5 -72h447v-26q-69 -117 -221 -227q48 -20 92.5 -39.5t86.5 -42.5l-16 -24q-207 106 -427 168l16 24
q57 -17 111.5 -35t104.5 -39q143 100 220 212h-457q17 44 32 87.5t30 92.5h-255v29h263z" />
    <glyph glyph-name="cid1260" unicode="&#x4e14;" 
d="M285 470v-206h434v206h-434zM719 499v201h-434v-201h434zM285 234v-213h434v213h-434zM107 21h147v708h496v-708h146v-31h-789v31z" />
    <glyph glyph-name="cid1262" unicode="&#x4e16;" 
d="M100 547h126v215h32v-215h218v223h30v-223h217v223h29v-223h149v-29h-149v-283h-276v283h-218v-491h612v-32h-644v523h-126v29zM506 518v-252h217v252h-217z" />
    <glyph glyph-name="cid1263" unicode="&#x4e18;" 
d="M271 35h364v380h-364v-380zM889 35v-30h-774v30h127v619q300 34 497 98l15 -26q-203 -63 -483 -96v-185h578v-30h-181v-380h221z" />
    <glyph glyph-name="cid1264" unicode="&#x4e19;" 
d="M478 368q-56 -158 -194 -251l-23 18q181 119 218 358h-275v-535h-29v565h309q1 21 2 41l2 40v80h-380v30h786v-30h-376v-80q0 -20 -1 -41t-4 -40h317v-473q0 -85 -75 -85h-108l-8 30l105 -2q56 0 56 64v436h-290q-5 -27 -10 -51.5t-12 -47.5q134 -97 247 -232l-17 -28
q-60 74 -118.5 132t-121.5 102z" />
    <glyph glyph-name="cid1265" unicode="&#x4e1a;" 
d="M418 760v-725h163v725h31v-725h282v-31h-786v31h280v725h30zM862 597q-55 -238 -143 -420l-27 11q40 82 76 185t66 231zM163 606q37 -94 69 -200t61 -228l-28 -7q-27 110 -58 216.5t-71 210.5z" />
    <glyph glyph-name="cid1266" unicode="&#x4e1b;" 
d="M890 34v-30h-778v30h778zM329 750q0 -71 -4.5 -134.5t-10.5 -120.5q54 -55 98 -109.5t81 -109.5l-22 -22q-61 97 -161 207q-3 -13 -5 -27l-4 -28q-44 -189 -178 -302l-18 25q120 104 162 270q31 140 31 351h31zM673 766q0 -64 -2.5 -121t-9.5 -107q66 -258 224 -407
l-21 -23q-145 144 -212 363q-2 -15 -4.5 -30l-4.5 -27q-45 -193 -194 -315l-19 26q134 108 179 278q16 74 25.5 164.5t9.5 198.5h29z" />
    <glyph glyph-name="cid1267" unicode="&#x4e1c;" 
d="M355 653q15 30 28.5 63t27.5 68l31 -6q-12 -34 -26 -65t-28 -60h476v-30h-491q-75 -150 -165 -255h297v148h30v-148h293v-28h-293v-310q0 -70 -69 -70h-94l-4 30q23 -1 44 -1.5t42 -0.5q51 0 51 50v302h-329l-10 25q48 51 91.5 115t81.5 143h-209v30h225zM346 228
q-92 -128 -227 -221l-19 24q134 94 226 216zM683 246q127 -113 215 -224l-23 -21q-78 106 -213 225z" />
    <glyph glyph-name="cid1268" unicode="&#x4e1d;" 
d="M894 35v-30h-786v30h786zM368 748q-49 -99 -95.5 -174.5t-94.5 -130.5q93 8 193 20q16 29 32 57.5t33 57.5l28 -10q-137 -257 -266 -368q80 7 150.5 16.5t136.5 24.5l5 -29q-76 -15 -161 -25.5t-178 -16.5l-7 28q98 61 210 237q-54 -7 -105 -12.5t-102 -8.5l-7 27
q7 4 13 12q108 131 185 308zM750 749q-48 -100 -95 -175.5t-95 -130.5q96 8 195 20q16 27 30.5 54.5t30.5 57.5l28 -10q-132 -253 -257 -363q81 7 152.5 15.5t137.5 22.5l7 -29q-78 -13 -163.5 -23t-181.5 -16l-7 28q96 63 205 235q-55 -7 -106.5 -12.5t-101.5 -8.5l-8 27
q8 4 14 11q54 66 100 142.5t86 167.5z" />
    <glyph glyph-name="cid14992" unicode="&#x4e1f;" 
d="M857 724v-31h-339v-162h304v-30h-304v-161h383v-30h-475q-113 -220 -193 -294q132 8 263.5 20t264.5 31q-26 37 -54 72.5t-60 73.5l25 16q122 -145 184 -252l-25 -19q-22 40 -50 81q-135 -15 -283 -29t-309 -23l-7 28q3 1 4.5 1t2.5 1q79 55 207 293h-292v30h383v161
h-306v30h306v162h-340v31h710z" />
    <glyph glyph-name="cid14994" unicode="&#x4e21;" 
d="M105 687v32h789v-32h-377v-135h333v-507q0 -73 -69 -73h-95l-7 31l94 -2q45 0 45 50v471h-301v-345h156v234h31v-263h-403v259h30v-230h155v345h-302v-555h-31v585h333v135h-381z" />
    <glyph glyph-name="cid1270" unicode="&#x4e22;" 
d="M831 732q-68 -17 -145.5 -28.5t-167.5 -19.5v-153h304v-30h-304v-161h383v-30h-475q-58 -112 -108.5 -184.5t-91.5 -109.5q135 8 267 20t265 31q-27 37 -55 72.5t-59 73.5l25 16q121 -145 184 -252l-26 -19q-22 40 -51 81q-136 -15 -283.5 -29t-308.5 -23l-8 28q2 1 3 1
t3 1q82 55 214 293h-292v30h383v161h-306v30h306v151q-148 -11 -324 -11l-10 27q413 3 665 60z" />
    <glyph glyph-name="cid1271" unicode="&#x4e24;" 
d="M894 722v-31h-255v-171h203v-483q0 -71 -66 -71h-92l-7 30l87 -1q46 0 46 47v448h-171q-3 -27 -4.5 -50t-3.5 -45q67 -103 139 -238l-18 -27q-38 76 -69.5 133t-56.5 97q-31 -176 -126 -275l-22 20q119 123 131 385h-221q-2 -29 -4 -54.5t-8 -50.5q30 -38 59 -81.5
t59 -94.5l-18 -25q-31 54 -56.5 97t-48.5 73q-31 -159 -114 -249l-23 20q56 61 87.5 151t37.5 214h-168v-528h-32v558h201q0 8 0.5 16t0.5 16v139h-253v31h786zM609 520v171h-218v-139q0 -8 -1 -16t-1 -16h220z" />
    <glyph glyph-name="cid1272" unicode="&#x4e25;" 
d="M860 729v-29h-245v-255h265v-30h-656v-123q-7 -209 -106 -333l-24 21q92 112 97 312v153h233v255h-248v29h684zM586 445v255h-133v-255h133zM802 642q-14 -43 -31 -80.5t-36 -68.5l-27 8q20 30 36 66.5t32 81.5zM254 642q22 -33 41 -68t35 -73l-26 -13q-19 41 -37.5 77.5
t-40.5 67.5z" />
    <glyph glyph-name="cid14996" unicode="&#x4e26;" 
d="M122 562v29h479q63 87 103 178l31 -10q-43 -95 -100 -168h245v-29h-262v-543h278v-29h-788v29h276v543h-262zM589 19v543h-175v-543h175zM209 459q24 -68 44.5 -143t38.5 -155l-30 -6q-33 169 -83 296zM827 456q-20 -87 -43 -163t-53 -142l-28 12q27 59 51 133.5
t44 166.5zM303 769q54 -64 97 -143l-26 -13q-48 81 -97 144z" />
    <glyph glyph-name="cid1273" unicode="&#x4e27;" 
d="M486 659v115h31v-115h342v-28h-342v-263h374v-30h-402q33 -95 109 -171q106 34 198 120l20 -20q-88 -82 -195 -122q100 -91 275 -156l-18 -28q-343 133 -421 377h-173v-324q58 16 108 33t93 37l5 -30q-51 -23 -112 -43.5t-132 -38.5l-9 30q18 9 18 27v309h-145v30h376
v263h-353v28h353zM232 584q26 -37 49 -75.5t45 -82.5l-28 -12q-22 43 -45.5 82t-46.5 76zM797 573q-36 -83 -95 -161l-25 14q59 81 95 158z" />
    <glyph glyph-name="cid1275" unicode="&#x4e2a;" 
d="M517 510v-551h-31v551h31zM516 771q116 -192 396 -341l-18 -26q-263 137 -394 339q-157 -227 -392 -346l-19 28q256 132 398 346h29z" />
    <glyph glyph-name="cid1276" unicode="&#x4e2b;" 
d="M828 756q-66 -98 -142 -177.5t-165 -144.5v-476h-31v492q192 131 312 322zM213 758q76 -74 134 -138t97 -119l-25 -19q-43 59 -100 123.5t-131 136.5z" />
    <glyph glyph-name="cid1278" unicode="&#x4e2d;" 
d="M485 778h33v-172h325v-405h-30v66h-295v-315h-33v315h-295v-66h-32v405h327v172zM190 297h295v278h-295v-278zM518 297h295v278h-295v-278z" />
    <glyph glyph-name="cid1279" unicode="&#x4e30;" 
d="M188 427h298v179h-340v29h340v136h31v-136h346v-29h-346v-179h305v-30h-305v-177h368v-30h-368v-231h-31v231h-365v30h365v177h-298v30z" />
    <glyph glyph-name="cid1280" unicode="&#x4e32;" 
d="M203 668h283v106h31v-106h283v-204h-283v-111h319v-221h-319v-173h-31v173h-318v221h318v111h-283v204zM770 494v147h-253v-147h253zM486 494v147h-252v-147h252zM805 161v164h-288v-164h288zM486 161v164h-286v-164h286z" />
    <glyph glyph-name="cid1281" unicode="&#x4e34;" 
d="M330 771v-810h-32v810h32zM862 -35h-30v53h-356v-53h-31v394h417v-394zM641 48v282h-165v-282h165zM671 48h161v282h-161v-282zM634 567q82 -82 125 -141l-24 -19q-23 34 -54.5 69.5t-71.5 75.5zM171 659v-550h-31v550h31zM518 623q-25 -49 -53.5 -92.5t-64.5 -80.5
l-19 24q108 124 169 304l29 -8q-11 -31 -22 -60.5t-23 -56.5h362v-30h-378z" />
    <glyph glyph-name="cid1282" unicode="&#x4e36;" 
d="M368 537q97 -84 176.5 -167.5t145.5 -169.5l-24 -23q-61 82 -140 166t-180 173z" />
    <glyph glyph-name="cid1283" unicode="&#x4e38;" 
d="M404 594v174h30v-174h275l-16 -546q0 -43 33 -43h70q24 0 43 20q18 28 25 171l30 -7q-7 -152 -34 -188q-24 -26 -62 -26h-78q-58 0 -58 66l16 523h-245q-2 -78 -12.5 -144t-26.5 -125q40 -29 77.5 -61t72.5 -66l-19 -26q-34 34 -69.5 65t-70.5 58q-13 -37 -26 -69
q-72 -145 -239 -234l-19 28q161 80 237 232q5 15 10.5 30.5t11.5 31.5q-88 64 -173 110l17 25q44 -23 84.5 -49t80.5 -56q15 55 22.5 117.5t10.5 132.5h-251v30h253z" />
    <glyph glyph-name="cid1284" unicode="&#x4e39;" 
d="M291 359v369h460v-369h143v-29h-143v-288q0 -70 -71 -70h-102l-8 31q28 -1 53 -1.5t48 -0.5q49 0 49 53v276h-398q-5 -232 -130 -374l-21 22q116 140 120 352h-183v29h183zM720 698h-398v-339h398v339zM462 619q86 -97 131 -167l-25 -18q-25 39 -57.5 81t-72.5 89z" />
    <glyph glyph-name="cid1285" unicode="&#x4e3a;" 
d="M203 747q40 -41 70.5 -77.5t52.5 -69.5l-25 -17q-25 36 -55.5 73t-66.5 76zM508 368q50 -57 90.5 -106t69.5 -91l-27 -19q-60 93 -158 199zM467 772v-74q0 -84 -6 -157h375q0 -187 -9 -304.5t-24 -168.5q-34 -102 -123 -102q-31 0 -56 0.5t-47 1.5l-8 32q59 -5 109 -5
q97 8 113 168q7 80 11 166.5t4 180.5h-349q-19 -172 -73 -287q-79 -164 -263 -261l-17 27q179 91 260 262q47 112 62 259h-292v31h296q3 37 5.5 76.5t3.5 80.5v74h28z" />
    <glyph glyph-name="cid1286" unicode="&#x4e3b;" 
d="M139 577v31h725v-31h-346v-252h303v-28h-303v-276h377v-31h-787v31h378v276h-305v28h305v252h-347zM468 772q18 -35 31 -67.5t22 -61.5l-28 -11q-22 65 -54 133z" />
    <glyph glyph-name="cid1287" unicode="&#x4e3d;" 
d="M889 714v-30h-777v30h777zM306 -41l-8 30l67 -1q43 0 43 39v503h-219v-572h-30v602h279v-539q0 -62 -63 -62h-69zM256 410q63 -92 110 -197l-27 -12q-25 58 -52 107t-56 93zM713 -41l-8 30l64 -1q42 0 42 46v496h-218v-572h-29v602h277v-533q0 -68 -61 -68h-67zM659 411
q65 -96 113 -201l-28 -11q-50 117 -110 202z" />
    <glyph glyph-name="cid1288" unicode="&#x4e3e;" 
d="M242 765q24 -38 47 -80t43 -86l-26 -14q-22 48 -44.5 89t-45.5 78zM451 776q46 -74 86 -164l-26 -13q-20 46 -41.5 87t-43.5 77zM123 522v30h512q37 54 66.5 111t56.5 119l28 -12q-58 -135 -118 -218h211v-30h-219q76 -139 252 -218l-14 -28q-193 92 -267 246h-267
q-60 -141 -256 -243l-18 27q190 93 247 216h-214zM486 344v112h31v-112h219v-31h-219v-146h337v-29h-337v-179h-31v179h-338v29h338v146h-219v31h219z" />
    <glyph glyph-name="cid1290" unicode="&#x4e43;" 
d="M727 719v-15q-13 -71 -31.5 -141t-41.5 -144h221v-15q-7 -116 -12.5 -192.5t-12.5 -113.5q-16 -76 -55 -104q-20 -12 -49.5 -18.5t-73.5 -6.5h-99l-9 32q28 0 52.5 -0.5t47.5 -0.5q79 0 109 19q32 20 45 85q8 30 14 101.5t11 184.5h-228q26 79 45.5 153t32.5 146h-293
q-5 -156 -21 -269.5t-42 -185.5q-59 -154 -201 -265l-20 25q134 103 190 249q29 72 44 183t20 263h-217v30h574z" />
    <glyph glyph-name="cid1291" unicode="&#x4e45;" 
d="M532 303q-85 -117 -190.5 -202.5t-233.5 -141.5l-16 29q381 161 566 611h-310q-82 -131 -217 -234l-20 26q213 159 286 390l33 -3q-24 -78 -65 -149h329v-26q-30 -76 -66 -143.5t-76 -128.5q104 -217 355 -343l-22 -27q-249 133 -353 342z" />
    <glyph glyph-name="cid1293" unicode="&#x4e48;" 
d="M674 345q57 -86 105.5 -177t88.5 -188l-28 -12q-10 24 -20.5 47t-20.5 45q-126 -22 -271.5 -38t-315.5 -26l-8 33q15 8 30 21q155 133 405 560l31 -14q-135 -226 -236.5 -366t-172.5 -201q141 9 271 24t253 35q-33 69 -68.5 130t-71.5 116zM485 767q-130 -277 -365 -470
l-21 24q229 187 352 452z" />
    <glyph glyph-name="cid1294" unicode="&#x4e49;" 
d="M407 771q45 -50 84.5 -104.5t75.5 -114.5l-26 -15q-37 63 -78.5 118t-86.5 103zM788 726q-61 -323 -258 -519q162 -143 377 -219l-18 -28q-223 85 -380 225q-155 -147 -388 -223l-16 28q227 73 380 216q-92 85 -163 190t-122 234l26 14q102 -251 282 -418
q193 198 252 506z" />
    <glyph glyph-name="cid1295" unicode="&#x4e4b;" 
d="M441 776q46 -72 89 -170h284v-25q-162 -303 -479 -463q8 -9 15 -20q60 -77 169 -90q31 -1 75.5 -1.5t102.5 -0.5q35 0 84.5 0.5t112.5 1.5l-7 -31h-185q-58 0 -100 0.5t-67 1.5q-141 3 -218 117q-23 30 -41 30q-50 0 -130 -165l-26 18q83 180 157 180q17 0 28 -11
q2 -3 4.5 -4t4.5 -3q306 152 462 434h-606v31h327q-36 90 -89 163z" />
    <glyph glyph-name="cid1296" unicode="&#x4e4c;" 
d="M683 152v-30h-576v30h576zM612 -12h102q49 0 64 40q17 42 20 261h-550v376h167q17 28 29 58.5t20 59.5l31 -4q-8 -31 -20 -59.5t-28 -54.5h284q-1 -167 -23 -215q-25 -45 -108 -45h-49l-9 29q15 0 31.5 -0.5t31.5 -0.5q72 0 83 46q14 45 14 156h-422v-318h547
q-2 -235 -21 -299q-21 -59 -92 -59h-92z" />
    <glyph glyph-name="cid1297" unicode="&#x4e4d;" 
d="M310 601q-73 -130 -173 -233l-19 25q153 157 237 387l30 -9q-13 -36 -29 -71.5t-32 -68.5h565v-30h-422v-183h354v-29h-354v-183h377v-31h-377v-215h-29v641h-128z" />
    <glyph glyph-name="cid1298" unicode="&#x4e4e;" 
d="M500 336v324q-79 -6 -164 -10.5t-178 -4.5l-8 30q421 2 680 72l14 -27q-67 -19 -145 -34t-169 -23v-327h369v-32h-369v-269q0 -72 -65 -72h-123l-5 30q31 -1 60 -1.5t57 -0.5q46 0 46 51v262h-394v32h394zM787 608q-37 -116 -94 -207l-29 11q28 40 51 90.5t44 111.5z
M256 579q27 -42 50 -86t43 -92l-26 -12q-43 103 -96 181z" />
    <glyph glyph-name="cid1299" unicode="&#x4e4f;" 
d="M852 732q-271 -69 -717 -69l-10 28q220 1 398 18t314 50zM460 613q19 -29 39 -63.5t38 -73.5h253v-27q-157 -220 -452 -349v-1q50 -85 136 -87q20 -1 43.5 -1.5t51.5 -0.5q77 0 158 0.5t169 1.5l-7 -33h-315q-56 0 -96 3q-70 5 -113 40q-28 21 -59 75q-11 12 -22 12
q-52 0 -130 -150l-24 20q80 163 155 163q17 0 29 -11q3 -1 4 -5q282 119 434 321h-581v29h334q-17 36 -36.5 69t-41.5 63z" />
    <glyph glyph-name="cid1300" unicode="&#x4e50;" 
d="M163 378q41 179 59 318q5 -2 11 -2.5t13 -0.5q168 1 301 18t236 49l15 -26q-104 -31 -241.5 -48t-310.5 -18q-11 -76 -23 -140t-25 -120h295v193h30v-193h341v-30h-341v-348q0 -68 -69 -68h-118l-6 29q30 0 58.5 -0.5t54.5 -0.5q50 0 50 48v340h-330zM310 277
q-38 -80 -80.5 -149t-93.5 -127l-26 16q51 57 93.5 125.5t79.5 148.5zM697 297q45 -68 87 -140.5t79 -151.5l-27 -14q-39 82 -81 154.5t-86 136.5z" />
    <glyph glyph-name="cid1301" unicode="&#x4e52;" 
d="M294 243h326v255h-326v-255zM262 679q293 26 480 80l16 -27q-100 -27 -215 -46t-249 -31v-126h531v-31h-176v-255h240v-30h-778v30h151v436zM406 163q-103 -118 -255 -208l-20 25q149 87 252 204z" />
    <glyph glyph-name="cid1302" unicode="&#x4e53;" 
d="M302 238h324v255h-324v-255zM271 679q153 12 276.5 32t223.5 46l14 -26q-207 -51 -483 -76v-133h531v-29h-176v-255h241v-30h-790v30h163v441zM614 175q76 -52 136.5 -102.5t111.5 -102.5l-22 -22q-96 102 -247 208z" />
    <glyph glyph-name="cid1303" unicode="&#x4e54;" 
d="M392 523q48 75 81 156q-67 -7 -139.5 -9.5t-151.5 -2.5l-9 27q381 0 622 72l15 -27q-132 -38 -304 -57q-33 -86 -80 -159h454v-30h-255q81 -131 283 -229l-20 -26q-214 113 -294 255h-188q-57 -79 -129.5 -142.5t-163.5 -115.5l-18 24q170 96 275 234h-249v30h271z
M658 359v-401h-31v401h31zM381 360v-50q0 -143 -52 -226q-51 -77 -167 -124l-17 27q111 43 161 119q22 39 33 89.5t11 114.5v50h31z" />
    <glyph glyph-name="cid1305" unicode="&#x4e58;" 
d="M697 266q-71 0 -71 68v182h30v-91q115 13 206 50l11 -27q-96 -33 -217 -51v-55q0 -49 50 -49h94q28 0 39 9q15 13 21 70l29 -9q-6 -68 -28 -85q-17 -12 -55 -12h-109zM486 598v106q-68 -4 -141.5 -7t-153.5 -3l-9 28q372 2 600 48l16 -26q-120 -27 -281 -38v-108h376v-31
h-376v-241q150 -188 385 -291l-17 -28q-215 100 -368 279v-329h-31v324q-146 -169 -367 -278l-20 29q246 118 387 290v245h-378v31h378zM360 514v-266h-30v56q-43 -10 -94 -19.5t-110 -18.5l-6 28q112 16 210 38v87h-194v29h194v66h30z" />
    <glyph glyph-name="cid1306" unicode="&#x4e59;" 
d="M785 709v-28q-139 -107 -232 -181t-142 -116q-62 -51 -105.5 -97t-69.5 -89q-35 -58 -35 -98q0 -30 25 -52q28 -20 106 -20h369q87 1 126 39q35 44 35 186l31 -9q0 -151 -41 -198q-44 -48 -143 -48h-383q-89 0 -122 27q-36 31 -36 75q0 49 35 100q52 89 180 195
q129 112 351 283h-556v31h607z" />
    <glyph glyph-name="cid1308" unicode="&#x4e5d;" 
d="M421 771v-207h277v-523q0 -39 40 -39h69q48 0 58 61q8 66 8 136l29 -8q-3 -60 -6 -96.5t-7 -51.5q-12 -71 -82 -71h-73q-67 0 -67 65v497h-246q-6 -223 -73 -358q-72 -134 -235 -210l-17 27q159 71 232 211q59 127 63 330h-237v30h238v207h29z" />
    <glyph glyph-name="cid1309" unicode="&#x4e5e;" 
d="M338 768q-10 -29 -21.5 -56.5t-25.5 -53.5h559v-29h-574q-57 -98 -130 -173l-21 24q62 61 107.5 135t77.5 161zM746 476v-29q-309 -181 -422 -297q-57 -60 -59 -104q0 -39 61 -39h367q60 0 95 20q42 26 56 179l31 -11q-18 -154 -59 -187q-41 -30 -120 -30h-366
q-97 0 -97 65q0 57 79 137q56 55 150.5 121.5t232.5 145.5h-431v29h482z" />
    <glyph glyph-name="cid1310" unicode="&#x4e5f;" 
d="M534 778v-228l270 60q0 -123 -1 -196.5t-4 -99.5q-11 -101 -105 -101h-43l-8 30q15 0 29 -0.5t28 -0.5q60 0 73 90q0 15 0.5 74.5t0.5 165.5l-240 -54v-343h-30v335l-226 -51v-380q0 -62 64 -62h410q61 0 89 22q26 22 36 157l29 -8q-13 -142 -41 -172q-28 -28 -107 -28
h-423q-87 0 -87 85v380l-156 -35v31l156 35v222h30v-214l226 50v236h30z" />
    <glyph glyph-name="cid1311" unicode="&#x4e60;" 
d="M639 308q-194 -119 -476 -213l-12 30q140 43 259.5 95t220.5 117zM253 565q61 -45 111 -90.5t89 -90.5l-20 -21q-75 87 -202 182zM523 -8h145q48 0 72 42q23 42 30 202q2 98 3 441h-600v29h629q-2 -208 -3 -330t-2 -160q-5 -145 -31 -200q-24 -51 -93 -51q-28 0 -63 -1
t-79 -1z" />
    <glyph glyph-name="cid1312" unicode="&#x4e61;" 
d="M828 430q-29 -195 -178 -312q-131 -107 -464 -167l-12 31q158 26 270.5 65.5t181.5 91.5q33 25 60 54.5t49 64.5q-101 -15 -228 -27.5t-288 -21.5l-10 28q82 39 166.5 100.5t172.5 146.5q-88 -10 -176.5 -17t-178.5 -11l-7 28q171 131 290 304l30 -12
q-117 -168 -274 -289q85 5 172 11.5t175 15.5q34 35 67.5 70.5t67.5 75.5l30 -14q-262 -298 -461 -404q139 9 256 20.5t213 26.5q17 33 28 69t18 76z" />
    <glyph glyph-name="cid1313" unicode="&#x4e66;" 
d="M466 778v-169h263v-17l-20 -225h130q0 -242 -37 -284q-19 -21 -52 -29q-12 -2 -23 -3t-24 -1h-60l-9 30h73q51 0 74 25q23 29 29 232h-344v-379h-30v379h-335v30h335v211h-283v31h283v169h30zM680 367l20 211h-234v-211h214zM697 770q105 -57 188 -137l-17 -25
q-45 44 -91.5 78.5t-95.5 60.5z" />
    <glyph glyph-name="cid1315" unicode="&#x4e70;" 
d="M181 480q104 -43 191 -106l-14 -25q-93 69 -193 108zM267 610q96 -46 176 -110l-16 -26q-87 73 -173 113zM568 626v-188q-1 -44 -6.5 -84t-16.5 -77h351v-31h-361q-6 -14 -12 -27t-13 -26q199 -97 364 -210l-21 -22q-87 58 -176 110t-183 96q-7 -8 -13.5 -17.5
t-14.5 -18.5q-97 -107 -320 -170l-18 27q219 59 320 167q36 44 54 91h-381v31h392q12 37 18 77.5t8 83.5v188h29zM827 710v-21q-10 -41 -23.5 -82t-30.5 -80l-30 8q32 66 53 146h-638v29h669z" />
    <glyph glyph-name="cid1316" unicode="&#x4e71;" 
d="M301 506v173q-41 -4 -83 -7t-89 -3l-10 28q224 0 367 52l14 -27q-74 -26 -168 -40v-176h203v-30h-203v-181h158v-333h-30v50h-284v-50h-32v333h157v181h-203v30h203zM460 41v225h-284v-225h284zM673 -27q-63 0 -63 63v724h31v-719q0 -38 41 -38h108q37 0 52 21
q19 29 25 169l31 -9q-10 -148 -34 -183q-22 -28 -67 -28h-124z" />
    <glyph glyph-name="cid1317" unicode="&#x4e73;" 
d="M684 -27q-66 0 -66 77v710h30v-703q0 -54 46 -54h108q34 0 48 21q17 28 25 165l28 -9q-7 -142 -30 -179q-21 -28 -66 -28h-123zM539 226q-44 -9 -88.5 -19t-92.5 -19v-159q0 -64 -67 -64h-92l-10 30q28 -1 50.5 -1.5t39.5 -0.5q47 0 47 45v145q-111 -20 -234 -35l-5 29
q65 9 124 17t115 18v102q67 44 128 100h-324v29h368v-24q-33 -30 -67.5 -59.5t-72.5 -56.5v-85q48 8 93 17.5t88 20.5v-30zM529 666q-16 -49 -35 -92.5t-42 -79.5l-27 9q42 69 75 172zM298 649q33 -71 52 -135l-26 -10q-22 70 -55 137zM139 636q32 -57 59 -136l-27 -6
q-13 35 -27.5 68.5t-32.5 63.5zM542 737q-82 -24 -191 -36.5t-246 -12.5l-9 26q268 2 431 49z" />
    <glyph glyph-name="cid1318" unicode="&#x4e7e;" 
d="M279 678v94h29v-94h176v-29h-176v-103h139v-301h-139v-106h177v-28h-177v-155h-29v155h-184v28h184v106h-137v301h137v103h-172v29h172zM416 383h-242v-109h242v109zM416 410v108h-242v-108h242zM582 613q-32 -60 -76 -112l-19 25q87 104 133 250l28 -8
q-10 -33 -22.5 -65t-26.5 -60h297v-30h-314zM848 447v-29q-57 -56 -101.5 -106.5t-79.5 -97.5q-29 -32 -48.5 -60.5t-31.5 -49.5q-22 -39 -22 -54q0 -47 62 -47h153q40 0 59 25q17 22 27 160l29 -11q-10 -145 -35 -173q-27 -27 -80 -30h-158q-88 0 -88 72q0 13 4.5 27.5
t15.5 31.5q23 44 92 130q31 40 70 85.5t89 96.5h-270v30h313z" />
    <glyph glyph-name="cid15042" unicode="&#x4e82;" 
d="M396 363q20 -23 36 -47t30 -50l-22 -11q-6 10 -11 18.5t-11 18.5q-30 -5 -77 -11t-110 -12l-4 23q14 6 29 28q12 16 21.5 32t17.5 31h-128v-421h-28v450h178q-45 37 -112 75l20 18q75 -43 123 -83q40 23 77 49.5t69 56.5h-357v26h54q-18 47 -54 89l27 9q30 -41 56 -98
h100q-18 59 -42 106l27 5q12 -24 23 -51.5t20 -59.5h79q44 57 72 122l26 -11q-29 -62 -68 -111h75v-23q-65 -67 -148 -119h158v-384q0 -62 -59 -62h-85l-7 29l81 -2q41 0 41 41v349h-190q-17 -32 -30.5 -54.5t-26.5 -35.5q38 6 72 9.5t68 10.5q-19 25 -33 42zM254 176
q26 -14 51.5 -28.5t48.5 -30.5q35 35 58 79h-185v25h216v-21q-26 -57 -68 -97q22 -15 41.5 -29t34.5 -28l-17 -18q-17 14 -35.5 28.5t-40.5 28.5q-53 -45 -124 -74l-17 21q70 28 118 67q-47 33 -99 62zM547 738q-163 -51 -432 -51l-9 26q132 1 238.5 13.5t189.5 36.5z
M705 -28q-66 0 -66 66v724h31v-717q0 -44 44 -44h94q26 0 41 15q19 30 26 180l28 -10q-7 -152 -30 -188q-18 -26 -57 -26h-111z" />
    <glyph glyph-name="cid1319" unicode="&#x4e86;" 
d="M500 472q74 44 142.5 95.5t133.5 111.5h-613v30h655v-30q-63 -60 -134.5 -115t-153.5 -108v-426q0 -64 -67 -64h-77t-66 1l-7 31q32 -3 67.5 -3h72.5q47 0 47 42v435z" />
    <glyph glyph-name="cid1320" unicode="&#x4e88;" 
d="M348 614q47 -28 88 -56t78 -57q59 43 109.5 91t95.5 102h-504v32h545v-26q-100 -126 -221 -218q11 -9 21.5 -18.5t19.5 -17.5h282v-28q-33 -55 -73 -103t-88 -90l-24 21q85 75 150 170h-303v-388q0 -66 -65 -66h-129l-6 29q34 0 63.5 -0.5t59.5 -0.5q47 0 47 46v380h-364
v30h407q-42 36 -94 72.5t-115 75.5z" />
    <glyph glyph-name="cid1321" unicode="&#x4e89;" 
d="M501 180v-154q0 -60 -62 -60h-138l-7 29q70 -3 134 -3q44 0 44 42v146h-253v30h253v134h-363v30h363v131h-238v29h259q82 55 152 122h-327q-72 -86 -171 -151l-19 22q76 51 135.5 112.5t99.5 133.5l31 -6q-12 -22 -25.5 -42.5t-27.5 -40.5h345v-24q-36 -38 -72.5 -69
t-72.5 -57h230v-160h124v-30h-124v-164h-270zM501 374h238v131h-238v-131zM501 210h238v134h-238v-134z" />
    <glyph glyph-name="cid1322" unicode="&#x4e8b;" 
d="M486 609v73h-365v29h365v65h31v-65h365v-29h-365v-73h265v-158h-265v-75h279v-125h111v-29h-111v-117h-279v-80q0 -63 -65 -63h-110l-6 29q28 -1 54.5 -1.5t51.5 -0.5q44 0 44 42v74h-310v27h310v90h-390v29h390v97h-309v28h309v75h-266v158h266zM752 581h-235v-105h235
v105zM486 581h-236v-105h236v105zM517 251h248v97h-248v-97zM517 222v-90h248v90h-248z" />
    <glyph glyph-name="cid1323" unicode="&#x4e8c;" 
d="M187 660h628v-29h-628v29zM105 95h791v-30h-791v30z" />
    <glyph glyph-name="cid1325" unicode="&#x4e8e;" 
d="M831 731v-31h-307v-285h370v-32h-370v-340q0 -77 -77 -77h-135l-7 30q34 -1 67.5 -1.5t65.5 -0.5q56 0 56 57v332h-386v32h386v285h-329v31h666z" />
    <glyph glyph-name="cid1326" unicode="&#x4e8f;" 
d="M803 714v-30h-602v30h602zM884 507v-30h-513l-61 -165h459q-17 -247 -53 -294q-38 -48 -156 -48h-107l-8 30q63 -5 115 -5q94 0 126 39q35 38 50 247h-466l69 196h-220v30h765z" />
    <glyph glyph-name="cid1327" unicode="&#x4e91;" 
d="M821 711v-30h-631v30h631zM901 456v-30h-440q-70 -149 -130.5 -245.5t-110.5 -144.5q140 6 278 17.5t277 28.5q-27 51 -59.5 103t-68.5 107l25 14q63 -96 112 -180t82 -156l-26 -18q-11 26 -23 50.5t-26 50.5q-141 -16 -293 -28t-319 -21l-8 30q4 1 8 3q92 70 249 389
h-323v30h796z" />
    <glyph glyph-name="cid1328" unicode="&#x4e92;" 
d="M123 724h754v-31h-484l-43 -181h394l-75 -490h234v-30h-794v30h529l31 197h-420l112 474h-238v31zM673 248l38 235h-369l-55 -235h386z" />
    <glyph glyph-name="cid1330" unicode="&#x4e94;" 
d="M186 420h210l54 261h-309v30h721v-30h-380l-55 -261h312v-386h157v-30h-789v30h209l73 356h-203v30zM346 34h361v356h-286z" />
    <glyph glyph-name="cid1331" unicode="&#x4e95;" 
d="M334 586v185h29v-185h276v184h31v-184h191v-30h-191v-244h230v-32h-230v-317h-31v317h-284q-14 -85 -43 -150q-50 -99 -161 -155l-20 29q107 53 158 151q24 55 34 125h-221v32h226q2 24 4 48.5t2 51.5v144h-193v30h193zM363 412q0 -28 -1 -53t-3 -47h280v244h-276v-144z
" />
    <glyph glyph-name="cid1333" unicode="&#x4e9a;" 
d="M865 712v-31h-253v-646h282v-30h-786v30h280v646h-252v31h729zM581 35v646h-163v-646h163zM834 530q-48 -208 -121 -360l-28 10q35 71 65.5 159.5t55.5 197.5zM188 526q67 -150 117 -346l-27 -8q-47 181 -119 344z" />
    <glyph glyph-name="cid1334" unicode="&#x4e9b;" 
d="M368 770v-162h146v-31h-146v-206q40 7 80 15t77 16v-30q-99 -22 -206 -39t-223 -31l-9 29l95 12v340h31v-336q32 4 63 8.5t61 10.5v404h31zM878 664q-58 -31 -124 -57t-144 -46v-168q0 -43 42 -43h123q43 0 58 16q21 19 30 122l28 -8q-7 -109 -35 -137q-23 -22 -75 -22
h-137q-64 0 -64 67v381h30v-179q69 20 131.5 44t118.5 55zM788 213v-29h-576v29h576zM889 21v-31h-776v31h776z" />
    <glyph glyph-name="cid15054" unicode="&#x4e9e;" 
d="M122 727h758v-30h-257v-194h203v-282h-204v-200h272v-31h-785v31h269v200h-200v284h202v192h-258v30zM592 21v230h204v222h-204v224h-183v-223h-201v-223h201v-230h183z" />
    <glyph glyph-name="cid1335" unicode="&#x4e9f;" 
d="M368 522v-293h-214v293h214zM338 493h-154v-235h154v235zM894 21v-31h-785v31h785zM606 445q69 -56 129 -115q52 76 83 174h-226v28h259v-23q-36 -117 -94 -201q34 -33 65 -67t58 -69l-23 -22q-26 34 -55 66.5t-63 65.5q-65 -80 -146 -133l-19 24q82 53 144 131
q-30 30 -62.5 60.5t-68.5 60.5zM736 728v-31q-50 -34 -105 -69.5t-118 -69.5v-399q0 -60 -53 -60h-105l-7 32q23 -1 47.5 -1h51.5q36 0 36 38v408q74 38 126 69t83 52h-476v31h520z" />
    <glyph glyph-name="cid1337" unicode="&#x4ea1;" 
d="M516 603q-37 79 -95 149l30 13q27 -33 50.5 -73t45.5 -89h347v-30h-625v-538h587v-31h-619v569h-129v30h408z" />
    <glyph glyph-name="cid1339" unicode="&#x4ea4;" 
d="M501 655q-12 33 -27 62t-32 55l34 7q15 -27 29.5 -58t28.5 -66h360v-30h-786v30h393zM633 573q149 -122 250 -246l-23 -22q-91 117 -248 247zM697 395q-69 -131 -170 -225q151 -119 374 -179l-18 -28q-114 33 -209 78.5t-170 107.5q-154 -130 -379 -190l-18 28
q227 58 372 180q-108 96 -174 217l27 16q65 -123 172 -212q51 48 91.5 103t73.5 116zM387 552q-51 -67 -114 -125t-139 -109l-19 26q74 49 136 105.5t113 123.5z" />
    <glyph glyph-name="cid1340" unicode="&#x4ea5;" 
d="M618 176q-181 -147 -459 -210l-17 25q462 106 641 427l27 -13q-34 -60 -76 -112.5t-94 -96.5q71 -55 129.5 -107.5t106.5 -107.5l-23 -23q-89 104 -235 218zM703 550q-161 -295 -549 -388l-18 26q252 60 403 196q-76 -7 -157 -13t-170 -12l-8 30q4 1 8 3q73 44 197 243
h-298v30h389q-11 31 -23.5 57.5t-26.5 49.5l34 7q12 -24 24.5 -52.5t25.5 -61.5h357v-30h-449q-55 -91 -101 -153t-85 -92q79 4 156.5 10t156.5 16q63 66 106 146z" />
    <glyph glyph-name="cid1341" unicode="&#x4ea6;" 
d="M268 484q-24 -96 -58.5 -179.5t-79.5 -154.5l-29 17q92 141 137 325zM743 490q43 -79 81 -162.5t70 -172.5l-30 -14q-34 97 -72 181t-78 159zM470 770q30 -54 57 -125h357v-31h-258v-574q0 -74 -76 -74h-99l-6 29q49 -3 94 -3q56 0 56 55v567h-177v-154
q-3 -341 -217 -500l-22 20q206 149 209 480v154h-267v31h374q-13 34 -28.5 63.5t-30.5 56.5z" />
    <glyph glyph-name="cid1342" unicode="&#x4ea7;" 
d="M489 785q27 -50 48 -115h323v-29h-165q-10 -44 -23 -86.5t-31 -82.5h237v-29h-656v-151q-8 -209 -101 -334l-23 21q88 114 91 313v180h186l-44 169h-173v29h348q-22 65 -49 111zM609 472q41 81 55 169h-302l46 -169h201z" />
    <glyph glyph-name="cid1343" unicode="&#x4ea8;" 
d="M757 566v-165h-513v165h513zM727 539h-453v-110h453v110zM476 780q13 -22 24.5 -46t21.5 -53h357v-31h-756v31h368q-12 27 -23.5 50.5t-25.5 41.5zM497 187q127 42 245 97h-577v29h640v-24q-62 -33 -131.5 -62t-146.5 -56v-139q0 -70 -63 -70h-122l-8 29q37 0 67 -0.5
t51 -0.5q45 0 45 51v146z" />
    <glyph glyph-name="cid1344" unicode="&#x4ea9;" 
d="M806 -43h-31v58h-544v-58h-30v535h605v-535zM488 45v192h-257v-192h257zM775 45v192h-257v-192h257zM488 267v193h-257v-193h257zM518 267h257v193h-257v-193zM500 652q-24 60 -58 114l30 12q16 -28 31.5 -58.5t28.5 -67.5h362v-30h-786v30h392z" />
    <glyph glyph-name="cid1345" unicode="&#x4eab;" 
d="M755 577v-159h-509v159h509zM727 549h-450v-102h450v102zM472 774q26 -39 48 -90h367v-29h-771v29h373q-13 25 -25 45t-25 39zM500 162v51q123 43 236 97h-554v28h616v-23q-61 -31 -127.5 -60.5t-140.5 -55.5v-37h377v-30h-377v-111q0 -63 -59 -63h-130l-7 30
q39 0 70.5 -0.5t54.5 -0.5q41 0 41 43v102h-404v30h404z" />
    <glyph glyph-name="cid1346" unicode="&#x4eac;" 
d="M771 518v-220h-251v-264q0 -68 -66 -68h-96l-8 29q49 -3 92 -3q47 0 47 49v257h-256v220h538zM739 487h-477v-160h477v160zM470 780q13 -24 24.5 -53t23.5 -62h377v-30h-788v30h381q-12 31 -24 58t-25 50zM679 217q65 -54 119.5 -106.5t97.5 -107.5l-22 -23
q-41 51 -94.5 105t-120.5 111zM346 195q-88 -123 -222 -216l-19 25q128 88 219 212z" />
    <glyph glyph-name="cid1347" unicode="&#x4ead;" 
d="M759 225v-29h-241v-166q0 -68 -68 -68h-91l-6 30q22 -1 44 -1.5t43 -0.5q48 0 48 48v158h-246v29h517zM491 687q-8 24 -19 46t-22 40l33 7q10 -21 20 -44t19 -49h352v-29h-745v29h362zM742 577v-147h-482v147h482zM711 551h-420v-92h420v92zM855 210h-30v108h-647v-109
h-31v138h708v-137z" />
    <glyph glyph-name="cid1348" unicode="&#x4eae;" 
d="M655 238v-204q0 -40 43 -40h85q25 0 40 12q19 15 29 120l30 -9q-8 -91 -26 -122q-19 -29 -69 -29h-96q-66 0 -66 61v182h-244v-42q-6 -166 -252 -208l-19 26q240 39 240 186v67h305zM498 691q-23 45 -53 81l32 6q28 -39 52 -87h353v-27h-761v27h377zM736 580v-151h-470
v151h470zM705 554h-409v-98h409v98zM850 207h-32v113h-636v-114h-30v142h698v-141z" />
    <glyph glyph-name="cid1349" unicode="&#x4eb2;" 
d="M624 193q74 -37 141 -80t129 -95l-17 -26q-133 113 -269 175zM387 168q-104 -101 -268 -168l-14 27q79 31 144 71.5t119 91.5zM484 778q10 -23 21 -50.5t19 -59.5h306v-30h-655v30h318q-9 29 -19.5 55t-22.5 49zM354 451q-28 68 -70 129l29 10q40 -57 71 -139h234
q22 33 39.5 69.5t34.5 77.5l29 -12q-16 -39 -33.5 -72.5t-37.5 -62.5h223v-31h-354v-132h324v-30h-324v-239q0 -61 -68 -61h-102l-7 30q27 -1 51.5 -2t47.5 -1q47 0 47 43v230h-330v30h330v132h-357v31h223z" />
    <glyph glyph-name="cid1350" unicode="&#x4eb3;" 
d="M864 152l-369 -30v-83q0 -41 39 -41h270q32 0 46 12q16 16 24 86l26 -9q-5 -79 -30 -102q-18 -15 -61 -15h-285q-59 0 -59 64v86l-337 -27l-4 28l341 28v95q-49 -4 -99.5 -7t-103.5 -5l-7 26q265 8 472 50l15 -26q-59 -11 -119.5 -20t-127.5 -16v-95l365 29zM495 701
q-9 19 -19.5 37.5t-21.5 33.5l34 7q20 -34 37 -78h354v-30h-756v30h372zM757 602v-136h-499v136h499zM728 577h-440v-84h440v84zM854 252h-31v116h-644v-132h-31v158h706v-142z" />
    <glyph glyph-name="cid1351" unicode="&#x4eb5;" 
d="M491 703q-8 21 -19.5 40t-24.5 38l30 4q24 -37 44 -82h375v-27h-790v27h385zM289 560v80h29v-80h126v-30h-126v-107q31 6 61.5 13t59.5 14v-28q-30 -6 -60.5 -13t-60.5 -13v-93q0 -61 -61 -61h-87l-7 29q22 -1 43 -1.5t40 -0.5q43 0 43 42v79q-40 -8 -81.5 -14.5
t-83.5 -12.5l-6 28q43 5 86.5 11t84.5 15v113h-156v30h156zM487 457q23 -9 45.5 -19.5t44.5 -21.5q25 55 26 114h-120v30h120v80h31v-80h152v-138q1 -138 48 -138q34 3 46 110l23 -13q-7 -63 -26 -101q-20 -22 -43 -22q-32 0 -53 33q-21 39 -21 131v108h-126
q-3 -72 -30 -128q65 -33 116 -72l-16 -24q-30 21 -58 39t-55 33q-45 -67 -127 -110l-22 20q83 39 123 104q-23 12 -46.5 22.5t-46.5 19.5zM466 245q-33 -27 -65 -49t-65 -41v-151q57 13 109.5 28t101.5 32l6 -26q-55 -20 -118.5 -37t-139.5 -34l-6 27q18 7 18 19v127
q-42 -22 -91.5 -40.5t-106.5 -36.5l-17 25q61 17 112 35.5t92 41.5q85 42 146 95zM808 233q-33 -43 -66 -69q-33 -25 -76 -47q98 -85 244 -126l-16 -25q-263 76 -372 285l25 13q39 -73 97 -127q47 22 79 46q16 14 31.5 30t28.5 33z" />
    <glyph glyph-name="cid1352" unicode="&#x4eba;" 
d="M519 771q0 -58 -1.5 -107.5t-4.5 -89.5q76 -381 397 -580l-20 -26q-306 197 -388 533q-65 -324 -394 -533l-19 27q383 239 397 630q1 47 1.5 83.5t0.5 62.5h31z" />
    <glyph glyph-name="cid1354" unicode="&#x4ebf;" 
d="M219 514q-29 -43 -60 -82t-67 -76l-9 33q162 175 231 394l28 -14q-19 -55 -42 -106t-50 -99v-608h-31v558zM839 677v-28q-101 -104 -167.5 -175t-100.5 -111q-86 -97 -124 -180q-13 -28 -20 -51t-7 -44q0 -30 22 -49q23 -18 90 -18h248q48 0 70 33q18 41 18 166l31 -10
q0 -134 -25 -179q-26 -41 -86 -41h-263q-75 0 -106 25q-30 30 -30 73q0 45 25 96q19 44 51.5 91.5t78.5 98.5q47 53 109.5 120.5t142.5 150.5h-396v32h439z" />
    <glyph glyph-name="cid1355" unicode="&#x4ec0;" 
d="M226 516q-60 -96 -134 -173l-9 29q159 180 227 400l28 -12q-34 -100 -81 -192v-612h-31v560zM639 774v-310h268v-30h-268v-478h-31v478h-265v30h265v310h31z" />
    <glyph glyph-name="cid1356" unicode="&#x4ec1;" 
d="M855 615v-30h-466v30h466zM903 96v-29h-564v29h564zM220 501q-29 -41 -59.5 -79.5t-65.5 -73.5l-10 32q166 180 237 398l28 -15q-20 -58 -45 -111.5t-55 -102.5v-592h-30v544z" />
    <glyph glyph-name="cid1360" unicode="&#x4ec5;" 
d="M330 761q-36 -105 -86 -198v-607h-31v554q-51 -79 -113 -147l-10 32q74 86 126.5 180t84.5 199zM888 -38q-158 105 -262 231q-113 -143 -273 -231l-19 26q164 88 272 229q-159 207 -180 460h-41v29h447v-27q-48 -278 -187 -465q105 -127 263 -227zM625 238
q132 181 177 439h-346q17 -243 169 -439z" />
    <glyph glyph-name="cid1362" unicode="&#x4ec7;" 
d="M338 752q-20 -55 -41 -105t-49 -98v-592h-32v541q-54 -84 -119 -153l-10 33q155 172 223 387zM530 765v-199h208v-523q0 -43 43 -43h48q32 0 39 59q4 26 5 53.5t1 57.5l29 -8q-7 -101 -10 -123q-13 -69 -64 -69h-53q-69 0 -69 68v497h-177v-1q-6 -391 -194 -571l-24 21
q185 175 188 550v1h-138v31h138v199h30z" />
    <glyph glyph-name="cid1364" unicode="&#x4eca;" 
d="M416 537q56 -27 107 -58.5t98 -70.5l-18 -27q-101 85 -204 130zM802 320v-25q-95 -218 -357 -336l-19 25q244 107 339 306h-578v30h615zM513 769q171 -194 397 -308l-16 -27q-116 60 -214 135.5t-179 170.5q-147 -176 -392 -307l-14 27q119 62 217.5 139.5t178.5 169.5
h22z" />
    <glyph glyph-name="cid1365" unicode="&#x4ecb;" 
d="M668 471v-505h-32v505h32zM363 469v-159q-4 -239 -163 -351l-23 21q152 103 155 330v159h31zM512 770q167 -208 388 -330l-15 -26q-227 125 -385 328q-143 -193 -382 -337l-13 26q117 69 213 153t172 186h22z" />
    <glyph glyph-name="cid1366" unicode="&#x4ecd;" 
d="M359 692v30h415v-14q-10 -68 -22.5 -136t-27.5 -138h152v-12q-4 -123 -8.5 -202.5t-10.5 -116.5q-14 -82 -39 -110q-26 -27 -88 -27h-104l-9 32q30 -3 56.5 -3h49.5q51 0 75 22q20 26 29 88q5 33 9 108t8 193h-154q16 76 30 147t23 139h-225v-187q-7 -368 -200 -537
l-24 21q190 161 193 516v187h-128zM312 766q-30 -95 -69 -175v-635h-30v578q-26 -49 -57.5 -93.5t-67.5 -84.5l-9 33q141 172 205 391z" />
    <glyph glyph-name="cid1367" unicode="&#x4ece;" 
d="M328 768q0 -109 -6 -201t-17 -170q113 -120 186 -238l-23 -22q-62 106 -167 223l-5 -16q-43 -234 -190 -377l-22 26q131 128 178 337q17 88 25.5 197t8.5 241h32zM678 768q0 -71 -2.5 -134.5t-6.5 -122.5q34 -164 95.5 -292t146.5 -224l-22 -25q-158 182 -230 461
q-3 -24 -6.5 -46.5t-7.5 -44.5q-47 -233 -200 -378l-20 26q139 131 187 340q16 90 25.5 199t9.5 241h31z" />
    <glyph glyph-name="cid1368" unicode="&#x4ed1;" 
d="M513 769q169 -229 394 -364l-17 -28q-114 70 -211 160t-179 202q-146 -216 -388 -373l-15 30q234 149 392 373h24zM389 -27q-100 0 -100 103v383h29v-204q107 25 211.5 61.5t210.5 85.5l19 -24q-227 -102 -441 -153v-143q0 -79 80 -79h261q49 0 79 14q43 31 50 170
l30 -11q-12 -141 -54 -178q-32 -23 -96 -25h-279z" />
    <glyph glyph-name="cid1369" unicode="&#x4ed3;" 
d="M512 771q171 -216 395 -340l-16 -27q-229 128 -391 340q-150 -203 -393 -347l-15 28q238 138 398 346h22zM320 411v-357q0 -50 55 -50h309q76 0 94 28q12 18 19 50.5t11 80.5l29 -11q-8 -121 -43 -154q-29 -24 -108 -24h-317q-79 0 -79 73v393h418v-198q0 -72 -64 -75
q-69 0 -134 4l-10 29q36 -1 69 -2t66 -1q43 0 43 49v165h-358z" />
    <glyph glyph-name="cid1370" unicode="&#x4ed4;" 
d="M626 382v142q48 37 92.5 80.5t88.5 97.5h-390v29h427v-29q-83 -103 -188 -192v-128h254v-31h-254v-314q0 -77 -78 -77h-95l-8 30q21 -1 44 -1.5t47 -0.5q60 0 60 58v305h-280v31h280zM216 512q-27 -41 -57.5 -79.5t-63.5 -75.5l-11 33q161 176 228 389l27 -13
q-20 -55 -41.5 -105.5t-49.5 -98.5v-605h-32v555z" />
    <glyph glyph-name="cid1371" unicode="&#x4ed5;" 
d="M340 761q-37 -109 -92 -203v-602h-32v553q-54 -81 -122 -151l-11 33q82 85 139 180.5t91 202.5zM600 496v278h31v-278h272v-32h-272v-443h237v-31h-509v31h241v443h-277v32h277z" />
    <glyph glyph-name="cid1372" unicode="&#x4ed6;" 
d="M324 762q-17 -51 -37 -100t-44 -95v-611h-30v559q-26 -43 -55 -82.5t-62 -77.5l-11 34q149 173 211 385zM467 -25q-69 0 -69 68v406l-103 -34v31l103 34v210h30v-202l170 58v227h30v-218l200 68q0 -266 -11 -322q-10 -55 -90 -55h-21l-9 30q9 0 18.5 -0.5t16.5 -0.5
q44 0 54 36q6 17 9 84t3 185l-170 -54v-369h-30v358l-170 -56v-411q0 -42 47 -42h305q41 0 59 22q17 22 24 160l30 -11q-9 -140 -30 -172q-23 -30 -79 -30h-317z" />
    <glyph glyph-name="cid1374" unicode="&#x4ed8;" 
d="M332 768q-15 -48 -33 -92t-38 -87v-633h-30v576q-58 -102 -134 -185l-10 32q151 179 217 402zM735 566v206h29v-206h138v-31h-138v-489q0 -80 -67 -80h-126l-6 29q30 -1 60.5 -1.5t59.5 -0.5q50 0 50 61v481h-371v31h371zM430 417q55 -66 96.5 -121t70.5 -103l-24 -18
q-62 102 -167 226z" />
    <glyph glyph-name="cid1375" unicode="&#x4ed9;" 
d="M341 768q-19 -55 -42 -106t-51 -99v-607h-32v556q-26 -40 -56.5 -78t-64.5 -74l-11 33q81 88 138 183.5t91 204.5zM648 770v-720h183v557h31v-645h-31v57h-401v-57h-31v644h31v-556h188v720h30z" />
    <glyph glyph-name="cid1380" unicode="&#x4ee3;" 
d="M874 514l-309 -37q10 -108 27 -184q32 -136 100 -221q58 -76 110 -76q46 0 66 188l26 -17q-14 -110 -41 -163q-23 -38 -50 -38q-64 0 -131 84q-74 91 -110 242q-10 36 -16.5 81.5t-10.5 100.5l-209 -24l-6 30l211 24q-4 58 -6.5 125.5t-2.5 144.5h30q0 -150 11 -267
l305 35zM222 509q-59 -85 -127 -156l-10 31q163 177 229 390l28 -13q-19 -55 -41 -104t-50 -97v-604h-29v553zM656 765q44 -36 79 -71.5t63 -70.5l-22 -22q-26 34 -61.5 70.5t-80.5 73.5z" />
    <glyph glyph-name="cid1381" unicode="&#x4ee4;" 
d="M421 552q99 -45 180 -109l-15 -25q-91 70 -180 110zM334 193q48 -20 94.5 -41.5t92.5 -45.5q122 93 218 212h-538v31h577v-27q-97 -129 -230 -231q41 -22 78.5 -45.5t74.5 -47.5l-18 -28q-175 124 -367 197zM512 759q170 -195 396 -308l-17 -27q-229 116 -391 305
q-148 -183 -389 -314l-15 26q236 127 394 318h22z" />
    <glyph glyph-name="cid1382" unicode="&#x4ee5;" 
d="M371 668q128 -139 199 -243l-25 -19q-36 56 -86 117.5t-114 129.5zM696 264q-47 -90 -121.5 -164t-180.5 -134l-21 25q237 132 320 341q60 179 60 441h32q0 -127 -14 -233t-41 -194q-5 -14 -9.5 -27.5t-11.5 -25.5q120 -151 198 -298l-22 -22q-36 70 -83.5 142.5
t-105.5 148.5zM168 108q20 10 20 27v600h31v-610q59 23 116.5 52.5t115.5 64.5l9 -30q-131 -78 -282 -132z" />
    <glyph glyph-name="cid1384" unicode="&#x4eea;" 
d="M339 761q-20 -55 -41.5 -105t-49.5 -99v-598h-32v549q-25 -38 -53.5 -74.5t-60.5 -68.5l-10 31q78 86 132.5 179.5t87.5 198.5zM522 768q44 -55 78.5 -102t59.5 -88l-25 -17q-29 47 -62.5 94.5t-75.5 96.5zM842 727q-24 -167 -74 -300.5t-129 -233.5q116 -133 271 -208
l-19 -27q-156 79 -270 209q-57 -68 -125.5 -119.5t-150.5 -87.5l-16 27q161 72 271 206q-147 176 -226 438l26 14q77 -256 218 -428q147 197 195 517z" />
    <glyph glyph-name="cid1386" unicode="&#x4eec;" 
d="M700 -37l-8 30l93 -1q48 0 48 59v621h-235v31h266v-661q0 -79 -73 -79h-91zM449 772q35 -41 61 -77.5t45 -68.5l-25 -18q-19 34 -45 71t-60 78zM340 762q-38 -114 -92 -207v-599h-32v549q-26 -41 -55.5 -77.5t-62.5 -71.5l-11 33q156 171 226 385zM420 620v-661h-31v661
h31z" />
    <glyph glyph-name="cid1387" unicode="&#x4ef0;" 
d="M359 111q16 5 16 19v548q118 35 176 76l18 -27q-56 -37 -163 -70v-532q41 16 81 32t78 33l6 -29q-44 -20 -95 -38.5t-110 -38.5zM212 522q-25 -47 -53 -88.5t-59 -82.5l-10 32q67 89 113.5 185.5t75.5 203.5l26 -12q-13 -48 -29 -91.5t-34 -84.5v-627h-30v565zM727 70
l-8 29l61 -1q49 0 49 52v518h-170v-706h-31v736h231v-555q0 -73 -69 -73h-63z" />
    <glyph glyph-name="cid1388" unicode="&#x4ef2;" 
d="M328 765q-17 -53 -38.5 -101.5t-45.5 -93.5v-614h-30v563q-26 -44 -57 -83.5t-63 -76.5l-11 34q151 170 217 386zM632 769v-171h228v-385h-31v55h-197v-310h-31v310h-194v-55h-32v385h226v171h31zM601 297v270h-194v-270h194zM829 297v270h-197v-270h197z" />
    <glyph glyph-name="cid1391" unicode="&#x4ef6;" 
d="M334 763q-20 -55 -42.5 -107t-49.5 -100v-599h-29v550q-51 -80 -119 -152l-11 34q154 171 222 387zM485 721q-7 -40 -15.5 -77t-19.5 -70h172v198h29v-198h222v-32h-222v-251h254v-30h-254v-299h-29v299h-281v30h281v251h-183q-34 -92 -86 -163l-19 24q87 130 120 321z
" />
    <glyph glyph-name="cid1392" unicode="&#x4ef7;" 
d="M220 521q-27 -44 -56 -82.5t-62 -75.5l-10 32q145 167 204 373l30 -12q-31 -96 -76 -181v-617h-30v563zM740 462v-496h-31v496h31zM500 459v-137q-1 -248 -132 -363l-25 20q125 107 129 343v137h28zM614 770q88 -191 299 -333l-17 -26q-199 133 -296 328
q-113 -220 -286 -339l-18 26q190 132 292 344h26z" />
    <glyph glyph-name="cid1393" unicode="&#x4efb;" 
d="M864 710q-99 -30 -238 -46v-291h279v-30h-279v-322h234v-31h-495v31h232v322h-277v30h277v287q-53 -3 -109 -5.5t-117 -2.5l-10 29q152 0 274 14.5t216 41.5zM340 757q-37 -107 -92 -201v-600h-32v553q-26 -38 -55 -73.5t-61 -68.5l-11 30q155 166 224 371z" />
    <glyph glyph-name="cid1394" unicode="&#x4efd;" 
d="M404 380v30h377q0 -258 -15 -319q-9 -118 -96 -118q-14 0 -37.5 0.5t-56.5 1.5l-8 29q29 0 53.5 -0.5t47.5 -0.5q58 0 68 92q6 26 8.5 97.5t4.5 187.5h-195q-12 -79 -28 -141t-38 -106q-47 -93 -141 -168l-18 24q86 70 131 154q43 89 62 237h-119zM335 757
q-18 -52 -39.5 -100.5t-47.5 -93.5v-607h-32v558q-53 -83 -119 -151l-10 32q152 166 220 373zM535 752q-84 -233 -215 -352l-24 20q138 125 210 343zM684 772q65 -207 218 -336l-19 -22q-159 131 -224 344z" />
    <glyph glyph-name="cid1395" unicode="&#x4eff;" 
d="M337 760q-17 -49 -36 -94.5t-42 -88.5v-621h-31v568q-27 -44 -59 -86t-68 -79l-9 33q151 171 216 380zM357 591v31h265q-28 82 -59 146l31 5q15 -33 30 -70.5t27 -80.5h244v-31h-361v-115q0 -38 -4 -70h296q-3 -245 -15 -329q-16 -105 -109 -110q-54 0 -129 3l-9 28
q39 -3 73 -3h61q74 5 87 98q3 40 6 110.5t3 173.5h-266q-24 -278 -171 -418l-23 22q166 154 170 495v115h-147z" />
    <glyph glyph-name="cid1396" unicode="&#x4f01;" 
d="M512 768q86 -98 185.5 -173.5t213.5 -133.5l-16 -28q-233 119 -395 307q-75 -88 -173.5 -165.5t-222.5 -143.5l-17 29q242 123 403 308h22zM542 538v-218h260v-30h-260v-260h322v-29h-738v29h146v378h31v-378h209v508h30z" />
    <glyph glyph-name="cid1398" unicode="&#x4f0a;" 
d="M578 281q-7 -41 -16.5 -76t-22.5 -64q-63 -124 -189 -181l-18 28q115 52 176 160q26 50 39 133h-164v32h169q4 33 6 71t2 77v15h-214v29h214v166h-164v31h426v-197h85v-29h-85v-195h-244zM591 505h199v166h-199v-166zM591 459q0 -40 -1.5 -77t-7.5 -69h208v163h-199v-17z
M220 530q-29 -49 -60.5 -93t-69.5 -84l-9 31q77 91 130.5 191t86.5 210l29 -13q-16 -50 -35.5 -96.5t-41.5 -90.5v-629h-30v574z" />
    <glyph glyph-name="cid1399" unicode="&#x4f0d;" 
d="M529 414l34 263h-192v29h494v-29h-272l-33 -263h231v-388h112v-31h-576v31h155l43 356h-149v32h153zM761 26v356h-206l-43 -356h249zM341 760q-37 -108 -91 -205v-599h-33v548q-26 -41 -54.5 -77.5t-61.5 -70.5l-9 33q156 172 221 384z" />
    <glyph glyph-name="cid1401" unicode="&#x4f0f;" 
d="M225 526q-27 -50 -59 -93.5t-67 -84.5l-11 32q148 180 210 398l29 -15q-31 -97 -72 -180v-627h-30v570zM732 746q41 -43 70.5 -81t49.5 -71l-24 -17q-23 34 -52 72.5t-68 82.5zM626 770q0 -53 -1 -116t-3 -135q0 -1 0.5 -3t0.5 -4h271v-29h-266q63 -324 282 -500l-21 -24
q-215 174 -276 475q-55 -284 -281 -476l-21 24q246 209 278 501h-244v29h246q2 87 3 151t1 107h31z" />
    <glyph glyph-name="cid1402" unicode="&#x4f10;" 
d="M225 527q-27 -46 -58 -88t-65 -80l-10 34q144 168 206 376l29 -12q-31 -93 -72 -176v-622h-30v568zM874 542l-330 -49q10 -93 30 -170q12 -39 22 -74t24 -65q112 109 187 263l27 -17q-83 -164 -202 -275l20.5 -41t21.5 -34q63 -85 114 -85q43 6 88 173l26 -17
q-22 -71 -45 -124q-30 -62 -69 -62q-63 0 -129 85q-13 19 -25.5 39.5t-24.5 44.5q-115 -98 -261 -154l-17 27q76 27 142 65.5t124 90.5q-28 62 -49 138q-9 41 -18 86.5t-14 99.5l-182 -28l-5 29l183 30q-6 57 -9 120t-3 134h30q0 -139 11 -250l327 51zM669 766
q59 -58 111 -129l-28 -13q-51 72 -108 130z" />
    <glyph glyph-name="cid1403" unicode="&#x4f11;" 
d="M215 504q-53 -77 -118 -145l-10 34q161 170 227 379l28 -13q-39 -113 -96 -206v-594h-31v545zM584 580v189h30v-189h245v-29h-205q90 -258 255 -418l-20 -27q-164 168 -260 445h-15v-593h-30v593h-17q-47 -145 -108 -256.5t-140 -195.5l-16 29q154 156 240 423h-183v29
h224z" />
    <glyph glyph-name="cid1404" unicode="&#x4f17;" 
d="M513 772q164 -218 382 -346l-15 -27q-221 130 -380 345q-142 -203 -382 -351l-17 29q230 138 388 350h24zM350 457q0 -46 -3.5 -87.5t-8.5 -77.5q89 -85 152 -175l-22 -23q-26 40 -60 81.5t-74 84.5l-7.5 -30t-8.5 -29q-47 -140 -194 -224l-19 25q132 74 183 198
q32 103 32 257h30zM668 463q0 -40 -3 -77.5t-7 -72.5q72 -202 248 -317l-21 -23q-164 114 -235 286q-2 -16 -5.5 -29t-6.5 -28q-41 -141 -176 -232l-20 25q122 81 163 205q31 106 31 263h32z" />
    <glyph glyph-name="cid1405" unicode="&#x4f18;" 
d="M225 515q-57 -86 -129 -161l-9 30q79 87 135 181.5t89 201.5l27 -11q-18 -52 -38 -99t-45 -91v-608h-30v557zM537 542q2 18 2.5 35t0.5 35v158h29v-158l-2 -70h315v-31h-200v-473q0 -36 36 -36h91q20 0 31 14q16 27 20 166l29 -10q-6 -141 -25 -176q-16 -23 -47 -24h-108
q-57 0 -57 60v479h-87q-25 -368 -229 -549l-23 19q196 174 222 530h-194v31h196zM691 746q41 -30 76.5 -59.5t62.5 -60.5l-21 -20q-51 57 -140 121z" />
    <glyph glyph-name="cid1406" unicode="&#x4f19;" 
d="M225 504q-25 -36 -52.5 -70.5t-57.5 -65.5l-10 31q150 166 212 369l29 -11q-19 -55 -41.5 -105.5t-49.5 -98.5v-594h-30v545zM472 612q-18 -158 -79 -278l-29 9q62 118 78 272zM633 766q0 -57 -0.5 -112t-1.5 -110q0 -20 -1.5 -38t-3.5 -35q49 -312 276 -483l-20 -22
q-211 163 -265 430q-47 -263 -258 -436l-21 23q251 202 263 544q0 61 0.5 121t0.5 118h31zM868 623q-32 -154 -82 -272l-28 12q47 107 81 267z" />
    <glyph glyph-name="cid1407" unicode="&#x4f1a;" 
d="M512 771q86 -101 185.5 -179t213.5 -136l-16 -30q-233 125 -395 318q-150 -184 -396 -318l-17 28q244 127 403 317h22zM718 486v-30h-431v30h431zM859 304v-29h-431q-36 -76 -81.5 -141.5t-101.5 -123.5q133 7 255 19.5t236 30.5q-27 36 -56 73.5t-62 75.5l25 15
q61 -72 107 -133.5t79 -113.5l-24 -19q-13 20 -24.5 39t-27.5 40q-104 -19 -238.5 -32.5t-305.5 -24.5l-8 28q11 4 15 8q55 63 100.5 127t78.5 132h-249v29h713z" />
    <glyph glyph-name="cid1409" unicode="&#x4f1e;" 
d="M486 234v341h31v-341h357v-32h-357v-244h-31v244h-358v32h358zM757 468q-20 -48 -43 -92t-54 -87l-26 12q60 92 96 180zM513 770q172 -178 398 -280l-16 -27q-231 109 -393 280q-150 -169 -395 -293l-15 26q239 120 399 294h22zM269 469q46 -76 84 -171l-27 -7
q-16 45 -37.5 86.5t-45.5 81.5z" />
    <glyph glyph-name="cid1410" unicode="&#x4f1f;" 
d="M590 658v111h32v-111h246v-29h-246v-144h209v-29h-209v-142h257q0 -180 -27 -221q-25 -36 -93 -39h-47l-8 28h46q64 3 81 37q8 19 13 59.5t6 105.5h-228v-326h-32v326h-251v30h251v142h-190v29h190v144h-224v29h224zM219 509q-55 -81 -123 -151l-10 33q162 174 230 388
l29 -14q-19 -55 -42.5 -106.5t-52.5 -100.5v-602h-31v553z" />
    <glyph glyph-name="cid1411" unicode="&#x4f20;" 
d="M219 506q-55 -82 -118 -151l-9 34q152 171 220 383l27 -12q-35 -108 -89 -204v-600h-31v550zM551 646q9 32 16.5 63t12.5 63l32 -2q-9 -33 -15.5 -63t-14.5 -61h291v-31h-298q-10 -36 -20.5 -70t-19.5 -65h375v-30h-385q-13 -40 -26.5 -76t-30.5 -70h388v-26
q-33 -55 -83 -107.5t-122 -103.5q39 -22 74.5 -44t69.5 -45l-18 -28q-162 118 -338 185l15 26q46 -19 89.5 -38.5t82.5 -41.5q64 45 112.5 93t84.5 102h-396q36 80 67 174h-163v30h171q12 32 22 66t19 69h-172v31h180z" />
    <glyph glyph-name="cid1413" unicode="&#x4f24;" 
d="M338 769q-20 -55 -42 -105t-48 -97v-611h-32v560q-27 -43 -57.5 -82.5t-64.5 -76.5l-11 33q158 175 227 393zM545 784q-18 -70 -50 -129h408v-30h-425q-48 -83 -124 -150l-20 25q136 115 180 288zM608 552v-125q0 -5 -1 -10t-1 -11h260q0 -142 -3 -228.5t-9 -119.5
q-10 -88 -90 -88h-53.5t-83.5 2l-7 29q40 -1 76 -2t67 -1q52 0 62 63q5 30 8 108t4 208h-232q-21 -284 -225 -423l-25 21q202 132 221 402h-180v29h181q0 6 0.5 11.5t0.5 9.5v125h30z" />
    <glyph glyph-name="cid1415" unicode="&#x4f26;" 
d="M623 770q83 -172 289 -307l-18 -26q-95 62 -166 137.5t-119 164.5q-56 -101 -127.5 -176.5t-157.5 -129.5l-18 26q189 120 291 311h26zM522 -27q-73 0 -73 69v412h30v-179q156 42 315 130l16 -25q-85 -48 -168.5 -81t-162.5 -55v-194q0 -46 53 -46h203q55 0 74 18
q28 30 39 155l29 -10q-5 -68 -16 -109.5t-30 -57.5q-26 -27 -91 -27h-218zM336 765q-35 -106 -88 -200v-609h-32v558q-52 -83 -118 -154l-11 33q152 171 220 385z" />
    <glyph glyph-name="cid1417" unicode="&#x4f2a;" 
d="M225 530q-58 -94 -130 -174l-11 33q150 169 214 383l29 -12q-15 -47 -32.5 -89t-38.5 -83v-632h-31v574zM396 747q69 -79 104 -136l-24 -17q-22 33 -47 67.5t-57 69.5zM614 368q42 -52 74 -97t55 -83l-25 -17q-23 41 -56 86t-72 94zM604 772v-103q0 -35 -1 -68t-3 -64
h256q0 -183 -3 -294.5t-10 -155.5q-13 -115 -134 -115q-8 0 -25.5 0.5t-42.5 0.5l-8 29q23 -1 42 -1h34q91 0 105 91q6 38 8.5 141t4.5 273h-230q-11 -172 -57 -289q-62 -156 -205 -250l-18 26q139 88 201 250q19 56 32 121t18 142h-205v31h207q3 31 4 64t1 68v103h29z" />
    <glyph glyph-name="cid1419" unicode="&#x4f2f;" 
d="M233 519q-57 -84 -131 -160l-10 34q83 84 139.5 179t91.5 200l27 -12q-35 -101 -88 -193v-607h-29v559zM852 -39h-32v52h-377v-52h-31v668h140q36 68 49 144l32 -4q-17 -73 -51 -140h270v-668zM820 43v267h-377v-267h377zM820 339v260h-377v-260h377z" />
    <glyph glyph-name="cid1420" unicode="&#x4f30;" 
d="M332 760q-36 -108 -89 -205v-599h-30v548q-26 -43 -55.5 -81t-62.5 -73l-11 32q78 89 132 186t88 204zM605 583v189h31v-189h271v-30h-271v-219h201v-375h-30v45h-365v-45h-31v375h194v219h-258v30h258zM807 34v270h-365v-270h365z" />
    <glyph glyph-name="cid1422" unicode="&#x4f34;" 
d="M421 726q23 -40 44 -87.5t37 -101.5l-28 -7q-15 48 -35.5 94t-45.5 92zM849 734q-19 -59 -41 -111.5t-48 -95.5l-30 10q27 40 48 91.5t40 113.5zM603 469v302h31v-302h248v-31h-248v-182h273v-30h-273v-268h-31v268h-267v30h267v182h-240v31h240zM330 761
q-36 -108 -88 -205v-600h-30v550q-49 -77 -112 -147l-11 33q148 171 213 381z" />
    <glyph glyph-name="cid1423" unicode="&#x4f36;" 
d="M543 546q65 -49 117 -119l-17 -22q-29 35 -59 65t-62 57zM332 762q-19 -56 -41.5 -107t-48.5 -99v-600h-30v551q-26 -39 -54.5 -76t-59.5 -72l-11 34q151 171 217 383zM814 356v-25q-95 -134 -221 -238q41 -26 78 -53.5t71 -55.5l-22 -22q-61 52 -140 105t-180 108l21 21
q41 -22 77.5 -43.5t69.5 -43.5q58 47 109.5 101.5t98.5 115.5h-429v30h467zM605 762q89 -174 305 -304l-16 -27q-204 123 -303 298q-118 -195 -299 -300l-16 25q196 120 301 308h28z" />
    <glyph glyph-name="cid1424" unicode="&#x4f38;" 
d="M415 247h194v167h-194v-167zM415 218v-51h-30v467h224v135h30v-135h225v-467h-28v51h-197v-260h-30v260h-194zM836 247v167h-197v-167h197zM836 604h-197v-162h197v162zM415 604v-162h194v162h-194zM337 761q-37 -106 -92 -205v-600h-31v550q-52 -79 -114 -144l-10 31
q154 173 218 380z" />
    <glyph glyph-name="cid1425" unicode="&#x4f3a;" 
d="M657 -39l-8 30l129 -1q55 0 55 62v650h-490v30h521v-689q0 -82 -79 -82h-128zM730 564v-30h-376v30h376zM695 408v-266h-307v266h307zM664 379h-247v-208h247v208zM315 762q-14 -48 -32 -92.5t-39 -85.5v-628h-30v572q-26 -45 -54.5 -85.5t-60.5 -76.5l-11 31
q138 167 200 379z" />
    <glyph glyph-name="cid1426" unicode="&#x4f3c;" 
d="M375 126q27 9 27 24v606h31v-612q76 29 153 73l7 -29q-49 -26 -101 -49t-108 -43zM222 518q-30 -48 -62 -91t-70 -82l-9 32q154 178 224 401l29 -13q-19 -53 -38.5 -101.5t-44.5 -91.5v-610h-29v556zM802 770q0 -256 -42 -432q-6 -26 -14.5 -50.5t-17.5 -49.5
q62 -72 108.5 -135t77.5 -118l-24 -17q-31 56 -74.5 115.5t-98.5 126.5q-67 -149 -204 -253l-19 25q173 130 233 343q22 90 33.5 200.5t11.5 244.5h30zM546 665q32 -55 59.5 -111.5t50.5 -119.5l-27 -12q-49 133 -110 235z" />
    <glyph glyph-name="cid1427" unicode="&#x4f3d;" 
d="M208 518q-24 -41 -50.5 -78.5t-56.5 -71.5l-9 32q132 167 192 372l27 -12q-17 -50 -34.5 -97.5t-39.5 -89.5v-612h-29v557zM587 613q0 -423 -14 -522q-13 -124 -116 -124q-7 0 -18.5 0.5t-28.5 1.5l-6 27q14 -1 27 -1h25q78 0 88 100q6 45 8.5 166t3.5 322h-122v-32
q-1 -403 -129 -593l-22 21q119 176 123 572v32h-98v30h98v161h28v-161h153zM864 -20h-28v58h-143v-58h-29v651h200v-651zM836 65v537h-143v-537h143z" />
    <glyph glyph-name="cid1429" unicode="&#x4f46;" 
d="M833 711v-523h-409v523h409zM803 434h-349v-216h349v216zM803 463v218h-349v-218h349zM908 21v-31h-561v31h561zM342 763q-37 -110 -93 -205v-602h-32v554q-53 -81 -121 -150l-10 33q80 87 137.5 181.5t90.5 203.5z" />
    <glyph glyph-name="cid15128" unicode="&#x4f47;" 
d="M888 484h-29v142h-466v-142h-30v171h257q-11 32 -23.5 60t-25.5 53l30 6q26 -50 49 -119h238v-171zM465 -34l-5 29q34 0 65.5 -0.5t63.5 -0.5q40 0 40 41v348h-274v31h543v-31h-239v-356q0 -61 -59 -61h-135zM343 759q-38 -110 -95 -207v-596h-32v549q-52 -78 -115 -142
l-9 32q79 86 135 179t89 197z" />
    <glyph glyph-name="cid15129" unicode="&#x4f48;" 
d="M320 759q-14 -47 -31 -90.5t-35 -83.5v-624h-31v566q-26 -47 -57 -89t-64 -82l-10 33q142 172 201 382zM536 641q11 34 21 66t19 65l28 -4q-9 -34 -18 -66t-18 -61h330v-30h-342q-19 -51 -43.5 -99t-51.5 -90h174v120h31v-120h191v-326q0 -55 -55 -55h-67l-8 30l65 -1
q36 0 36 34v289h-162v-434h-31v434h-160v-356h-30v364q-60 -88 -134 -152l-19 22q152 135 233 340h-183v30h194z" />
    <glyph glyph-name="cid1430" unicode="&#x4f4d;" 
d="M338 763q-35 -108 -88 -201v-606h-31v555q-52 -78 -118 -149l-9 31q154 174 219 383zM614 617q-13 41 -25 79t-25 71l31 5q13 -34 25 -72.5t24 -82.5h241v-30h-531v30h260zM651 41q39 94 70 210.5t59 258.5l29 -7q-25 -132 -55.5 -246.5t-70.5 -215.5h226v-30h-571v30
h313zM442 500q28 -90 52 -193t46 -220l-29 -7q-20 107 -44 209.5t-53 202.5z" />
    <glyph glyph-name="cid1431" unicode="&#x4f4e;" 
d="M421 30q27 9 53 19.5t51 22.5l6 -27q-32 -14 -69 -27.5t-79 -28.5l-10 27q19 8 19 22v615q144 23 252 46.5t183 50.5l17 -24q-34 -13 -74 -24.5t-88 -22.5q0 -72 2 -133.5t8 -115.5h206v-29h-204q2 -34 6 -65.5t9 -57.5q23 -124 63 -197q32 -63 56 -63q28 4 47 167
l26 -14q-24 -188 -65 -188q-39 0 -83 73q-23 39 -40.5 92t-31.5 122q-10 58 -17 131h-243v-371zM652 671q-51 -11 -108.5 -21t-122.5 -20v-200h240q-4 55 -6.5 114.5t-2.5 126.5zM575 145q79 -91 123 -163l-24 -16q-25 40 -55 81t-67 83zM338 758q-20 -55 -41 -103.5
t-48 -94.5v-604h-32v553q-27 -41 -57.5 -80t-63.5 -74l-10 33q156 170 224 382z" />
    <glyph glyph-name="cid1432" unicode="&#x4f4f;" 
d="M885 608v-31h-251v-253h227v-30h-227v-273h269v-32h-569v32h269v273h-227v30h227v253h-253v31h535zM337 760q-37 -108 -92 -204v-600h-31v551q-50 -76 -114 -142l-10 31q154 171 218 377zM586 772q16 -36 29.5 -68.5t23.5 -61.5l-30 -11q-10 34 -24 67.5t-30 66.5z" />
    <glyph glyph-name="cid1433" unicode="&#x4f50;" 
d="M551 612q9 38 18 77.5t18 79.5l31 -6q-9 -40 -17.5 -77t-19.5 -74h299v-31h-307q-20 -61 -41 -117t-47 -107h370v-30h-182v-298h225v-28h-517v28h263v298h-174q-31 -58 -66.5 -108.5t-75.5 -93.5l-21 25q156 172 235 431h-174v31h183zM336 758q-35 -102 -88 -196v-606
h-32v555q-51 -80 -119 -152l-10 34q154 170 219 377z" />
    <glyph glyph-name="cid1434" unicode="&#x4f51;" 
d="M342 749q-19 -58 -42 -110t-52 -100v-579h-32v528q-26 -38 -54.5 -74.5t-61.5 -69.5l-10 32q156 173 224 386zM828 -38h-30v64h-278v-64h-31v389q-36 -61 -76.5 -110.5t-88.5 -88.5l-14 28q169 146 243 408h-185v30h192q9 38 17.5 77.5t13.5 78.5l31 -3q-13 -82 -31 -153
h298v-30h-305q-18 -62 -39.5 -117.5t-47.5 -103.5h331v-405zM798 56v281h-278v-281h278z" />
    <glyph glyph-name="cid1435" unicode="&#x4f53;" 
d="M213 492q-52 -86 -113 -154l-8 31q150 183 215 407l28 -14q-20 -59 -42.5 -113.5t-49.5 -106.5v-585h-30v535zM587 604v169h29v-169h259v-30h-204q65 -246 238 -432l-20 -25q-181 203 -245 457h-28v-389h158v-30h-158v-197h-29v197h-157v30h157v389h-27
q-71 -287 -247 -467l-17 26q171 170 238 441h-204v30h257z" />
    <glyph glyph-name="cid15135" unicode="&#x4f54;" 
d="M598 773v-173h309v-32h-309v-196h236v-414h-30v50h-385v-50h-31v414h180v401h30zM804 39v304h-385v-304h385zM360 766q-41 -117 -100 -215v-595h-31v547q-26 -40 -55.5 -76.5t-63.5 -70.5l-10 33q162 173 231 391z" />
    <glyph glyph-name="cid1436" unicode="&#x4f55;" 
d="M906 710v-30h-79v-653q0 -66 -70 -66h-155l-5 30q38 -1 75 -1.5t75 -0.5q50 0 50 46v645h-443v30h552zM664 514v-316h-277v316h277zM633 485h-216v-257h216v257zM327 761q-16 -55 -37.5 -103.5t-46.5 -93.5v-608h-30v556q-51 -82 -111 -146l-10 31q145 167 208 377z" />
    <glyph glyph-name="cid1439" unicode="&#x4f59;" 
d="M513 767q86 -86 185.5 -153t213.5 -117l-16 -28q-115 52 -213.5 119t-181.5 151q-75 -82 -173.5 -150.5t-222.5 -128.5l-17 28q242 112 403 279h22zM737 518v-31h-213v-148h337v-29h-337v-264q0 -76 -77 -76h-108l-5 30q26 -2 52 -3t51 -1q57 0 57 57v257h-353v29h353
v148h-224v31h467zM358 221q-42 -72 -95.5 -126t-120.5 -91l-22 21q137 74 210 207zM671 240q139 -126 216 -223l-25 -17q-78 100 -215 224z" />
    <glyph glyph-name="cid1441" unicode="&#x4f5b;" 
d="M320 767q-16 -55 -37 -107t-46 -100v-604h-29v551q-52 -82 -111 -151l-10 33q145 174 206 391zM363 301h122q6 69 10 150h-114zM525 451q-2 -40 -4 -77.5t-7 -72.5h142v150h-131zM684 301h195q0 -82 -3.5 -132t-11.5 -70q-20 -49 -72 -49q-14 0 -26.5 0.5t-25.5 0.5
l-6 30q15 -1 28 -1.5t25 -0.5q42 0 52 42q10 34 10 151h-165v-314h-28v314h-146q-6 -36 -14 -68.5t-20 -61.5q-48 -118 -156 -187l-16 27q104 65 150 184q9 24 14.5 50.5t10.5 55.5h-148l24 208h141v149h-148v27h148v113h29v-113h131v113h28v-113h165v-205h-165v-150z
M525 480h131v149h-131v-149zM684 480h134v149h-134v-149z" />
    <glyph glyph-name="cid1442" unicode="&#x4f5c;" 
d="M472 604q-64 -133 -150 -234l-21 24q135 159 204 382l30 -8q-12 -35 -24.5 -68.5t-25.5 -65.5h417v-30h-325v-181h280v-30h-280v-184h291v-31h-291v-220h-30v646h-75zM216 509q-26 -37 -54.5 -72.5t-61.5 -68.5l-10 32q156 165 224 372l28 -13q-36 -107 -94 -203v-598
h-32v551z" />
    <glyph glyph-name="cid1446" unicode="&#x4f60;" 
d="M217 505q-26 -44 -56.5 -84.5t-63.5 -76.5l-10 32q152 178 220 400l28 -14q-18 -54 -38.5 -104t-46.5 -98v-602h-33v547zM753 417q38 -83 71 -170t62 -182l-27 -11q-30 101 -64 188.5t-70 163.5zM460 622q-23 -57 -50.5 -107.5t-59.5 -96.5l-26 16q52 75 91 161t64 186
l32 -8q-10 -31 -19.5 -61.5t-20.5 -59.5h393v-21q-11 -44 -26 -85.5t-34 -83.5l-30 10q18 34 33 71.5t25 78.5h-372zM464 -35l-5 29q59 -3 116 -3q35 0 35 37v501h30v-510q0 -54 -54 -54h-122zM493 404q-26 -98 -60 -180.5t-73 -154.5l-30 11q78 128 135 332z" />
    <glyph glyph-name="cid1447" unicode="&#x4f63;" 
d="M424 348q0 -20 -1 -38l-2 -36h188v195h-185v-121zM418 243q-18 -169 -84 -285l-24 21q83 146 84 368v376h470v-696q0 -67 -66 -67h-75l-9 30q20 -1 38.5 -1.5t35.5 -0.5q45 0 45 50v205h-194v-273h-30v273h-191zM833 469h-194v-195h194v195zM833 693h-194v-195h194v195z
M424 693v-195h185v195h-185zM211 500q-53 -82 -114 -147l-10 31q154 176 219 394l28 -15q-19 -58 -42.5 -111.5t-50.5 -101.5v-594h-30v544z" />
    <glyph glyph-name="cid1451" unicode="&#x4f69;" 
d="M723 588v-28h-129v-119h118v-330q0 -52 -42 -52h-48l-8 26l45 -1q26 0 26 35v295h-91v-444h-26v444h-92v-371h-26v398h118v119h-130v28h285zM810 729v-475q0 -82 3 -134.5t10 -78.5q14 -45 33 -45q24 2 38 169l25 -11q-11 -107 -26 -153q-16 -35 -33 -35q-39 0 -58 59
q-21 56 -21 229v448h-397v-333q-3 -243 -80 -407l-23 18q71 158 74 389v360h455zM302 760q-31 -103 -70 -190v-614h-28v558q-23 -43 -49 -82t-55 -76l-10 32q66 85 111 181t75 203z" />
    <glyph glyph-name="cid1455" unicode="&#x4f73;" 
d="M601 649v124h31v-124h207v-31h-207v-167h257v-29h-543v29h255v167h-205v31h205zM601 242v141h31v-141h220v-31h-220v-190h274v-31h-576v31h271v190h-217v31h217zM216 505q-50 -78 -115 -143l-9 31q154 168 222 379l28 -13q-36 -110 -94 -206v-594h-32v546z" />
    <glyph glyph-name="cid15147" unicode="&#x4f75;" 
d="M353 750q-16 -42 -34 -83.5t-40 -80.5v-627h-30v578q-65 -102 -149 -181l-8 33q163 165 234 374zM470 765q25 -33 48 -69.5t45 -75.5l-27 -11q-23 40 -46 75.5t-48 67.5zM536 562v-199q0 -12 -0.5 -22.5t-0.5 -22.5h200v244h-199zM505 318q0 13 0.5 23t0.5 22v199h-136
v29h327q30 41 56.5 83.5t48.5 90.5l29 -9q-46 -95 -103 -165h154v-29h-118v-244h143v-29h-143v-331h-29v331h-204q-20 -222 -160 -332l-24 20q136 103 155 312h-152v29h155z" />
    <glyph glyph-name="cid1459" unicode="&#x4f7c;" 
d="M609 645q-23 69 -54 126l33 7q13 -30 26 -62.5t26 -70.5h244v-31h-529v31h254zM525 552q-71 -136 -171 -238l-25 17q101 100 171 234zM714 564q60 -64 105.5 -119t78.5 -103l-25 -19q-34 51 -79.5 107.5t-103.5 119.5zM764 394q-32 -160 -128 -266q52 -43 119 -78.5
t152 -65.5l-17 -25q-85 30 -153 66.5t-121 80.5q-106 -103 -279 -147l-18 26q175 42 274 140q-116 109 -143 254l27 10q25 -138 137 -242q93 101 122 254zM214 501q-51 -83 -115 -156l-11 32q149 176 214 394l28 -13q-17 -55 -38 -105.5t-47 -98.5v-598h-31v545z" />
    <glyph glyph-name="cid1461" unicode="&#x4f7f;" 
d="M613 669v103h30v-103h257v-29h-257v-109h217v-233h-221q-6 -69 -19.5 -121t-33.5 -89q142 -87 339 -100l-8 -29q-198 10 -348 105q-68 -82 -233 -109l-14 28q156 23 221 99q-90 61 -157 148l24 17q65 -85 150 -142q19 35 31.5 83t17.5 110h-212v233h216v109h-254v29h254z
M829 503h-186v-129q0 -12 -1 -24t-1 -24h188v177zM612 326q0 13 0.5 25t0.5 23v129h-186v-177h185zM213 509q-52 -85 -119 -162l-11 32q75 90 128.5 188.5t86.5 210.5l29 -15q-36 -107 -82 -198v-609h-32v553z" />
    <glyph glyph-name="cid1462" unicode="&#x4f83;" 
d="M597 383v-403h-29v403h29zM220 511q-53 -92 -115 -168l-10 31q140 177 198 396l27 -11q-14 -50 -32 -97t-38 -90v-618h-30v557zM794 722v-266h-406v266h406zM763 692h-345v-208h345v208zM784 -26q-26 0 -40 14q-13 13 -13 34v366h29v-359q0 -26 32 -26h37q20 0 30 10
q19 19 23 151l27 -9q-6 -129 -24 -157q-17 -24 -49 -24h-52zM445 297q0 -192 -115 -341l-24 19q110 141 110 322v87h29v-87z" />
    <glyph glyph-name="cid15157" unicode="&#x4f86;" 
d="M266 422q-24 -40 -52.5 -73t-62.5 -59l-20 23q125 102 172 273l29 -6q-22 -76 -52 -134q68 -43 129 -102l-17 -27q-31 33 -62.5 59t-63.5 46zM709 427q-41 -67 -96 -113l-20 24q110 89 150 247l30 -6q-10 -37 -22.5 -68t-26.5 -60q82 -50 146 -120l-17 -26q-36 39 -71 69
t-73 53zM486 634h-344v30h344v106h31v-106h343v-30h-343v-263q151 -222 390 -342l-18 -27q-220 115 -372 322v-363h-31v361q-134 -197 -368 -321l-17 26q252 132 385 343v264z" />
    <glyph glyph-name="cid1464" unicode="&#x4f88;" 
d="M347 757q-37 -112 -92 -205v-596h-31v547q-27 -43 -58.5 -80.5t-65.5 -72.5l-10 31q161 174 229 387zM752 431q-16 -26 -37 -48.5t-46 -43.5h215v-27q-90 -251 -525 -355l-16 26q94 23 168.5 49.5t132.5 59.5q-28 26 -56 52.5t-58 52.5l24 16q30 -25 58 -52t57 -53
q134 83 181 202h-221q-102 -68 -258 -109l-17 27q270 65 372 215zM650 770q-15 -22 -31 -41t-32 -39h244v-26q-88 -214 -461 -309l-17 25q144 37 244 89q-28 30 -53 52.5t-47 36.5l23 18q59 -41 100 -95q128 74 179 180h-242q-72 -69 -173 -117l-19 22q163 77 257 212z" />
    <glyph glyph-name="cid1466" unicode="&#x4f8b;" 
d="M626 713v-30h-175q-4 -43 -9.5 -82t-15.5 -75h176v-29q-58 -377 -270 -534l-16 28q117 88 183 238q-69 66 -139 105q-14 -26 -29.5 -50t-32.5 -46l-14 29q115 151 137 416h-85v30h290zM371 359q76 -42 140 -100q41 104 62 237h-154q-20 -76 -48 -137zM694 -35l-6 29
q49 -3 94 -3q48 0 48 51v728h30v-734q0 -71 -66 -71h-100zM191 497q-21 -37 -43.5 -71t-48.5 -67l-11 34q66 86 111 180.5t72 199.5l30 -13q-32 -108 -78 -205v-599h-32v541zM709 686v-561h-29v561h29z" />
    <glyph glyph-name="cid1468" unicode="&#x4f8f;" 
d="M237 532q-29 -48 -63.5 -92t-73.5 -84l-10 33q160 173 226 385l27 -13q-32 -96 -76 -176v-629h-30v576zM442 586q-16 -32 -31.5 -61t-32.5 -55l-28 16q80 117 118 269l30 -8q-20 -70 -44 -130h155v157h31v-157h208v-31h-208v-181h249v-29h-212q69 -176 242 -311l-20 -24
q-181 150 -248 335h-11v-419h-31v419h-10q-76 -209 -265 -344l-17 27q181 119 258 317h-229v29h263v181h-167z" />
    <glyph glyph-name="cid1469" unicode="&#x4f91;" 
d="M544 659q11 27 20 55t16 57l29 -5q-8 -29 -16.5 -54.5l-17.5 -52.5h330v-29h-341q-17 -38 -35 -72t-39 -65h341v-476q0 -54 -62 -56h-129l-7 29q34 -1 65 -1.5t61 -0.5q43 0 43 40v135h-309v-206h-29v497q-65 -89 -149 -155l-20 23q156 124 236 308h-191v29h204zM493 191
h309v120h-309v-120zM802 463h-309v-125h309v125zM204 497q-25 -38 -52 -72t-56 -67l-11 33q148 167 215 379l28 -12q-39 -117 -94 -213v-589h-30v541z" />
    <glyph glyph-name="cid1471" unicode="&#x4f97;" 
d="M215 518q-26 -45 -54 -86t-61 -79l-10 31q139 176 200 392l27 -14q-14 -50 -32 -96t-39 -89v-617h-31v558zM735 420v-273h-240v273h240zM706 392h-183v-217h183v217zM682 -38l-9 31l113 -2q52 0 52 50v659h-445v-742h-30v771h505v-694q0 -73 -70 -73h-116zM757 567v-28
h-284v28h284z" />
    <glyph glyph-name="cid1472" unicode="&#x4f9b;" 
d="M493 570v198h30v-198h197v198h31v-198h132v-31h-132v-242h157v-30h-570v30h155v242h-130v31h130zM720 297v242h-197v-242h197zM714 209q117 -130 179 -227l-27 -19q-64 106 -176 230zM545 190q-72 -130 -170 -224l-26 17q48 47 91 101.5t78 119.5zM216 512
q-27 -42 -57.5 -80.5t-64.5 -75.5l-11 33q160 175 229 391l27 -13q-20 -55 -41.5 -105.5t-49.5 -98.5v-605h-32v554z" />
    <glyph glyph-name="cid1473" unicode="&#x4f9d;" 
d="M334 762q-18 -51 -37.5 -99.5t-45.5 -92.5v-613h-29v561q-30 -47 -61.5 -88t-68.5 -82l-9 34q154 175 222 394zM589 772q12 -30 23 -67t22 -79h246v-28h-229q20 -153 62 -273q89 59 150 128l19 -24q-30 -33 -69.5 -65.5t-89.5 -65.5q69 -181 189 -297l-18 -28
q-224 221 -272 625h-21q-44 -128 -114 -226v-359q106 32 197 78l8 -30q-102 -47 -247 -91l-6 28q17 5 17 18v317q-34 -40 -71 -75.5t-80 -68.5l-15 27q201 147 283 382h-233v28h263q-21 79 -48 141z" />
    <glyph glyph-name="cid1474" unicode="&#x4fa0;" 
d="M204 493q-25 -41 -51.5 -76.5t-55.5 -68.5l-10 32q146 176 209 393l30 -13q-37 -115 -92 -216v-588h-30v537zM831 558q-15 -48 -34.5 -89.5t-42.5 -77.5l-27 10q23 32 41.5 73t35.5 91zM393 564q43 -69 75 -163l-27 -8q-15 43 -33.5 83t-39.5 79zM592 652v120h30v-120
h245v-30h-245v-134q0 -39 -3 -76.5t-10 -71.5h278v-30h-261q79 -187 288 -330l-20 -26q-212 156 -294 347q-61 -240 -289 -347l-19 25q225 102 281 331h-241v30h246q12 66 14 141v141h-245v30h245z" />
    <glyph glyph-name="cid15173" unicode="&#x4fa1;" 
d="M867 -42h-29v68h-432v-65h-31v557h159v178h-185v30h547v-30h-187v-178h158v-560zM564 696v-178h116v178h-116zM534 54v434h-128v-434h128zM564 54h116v434h-116v-434zM709 54h129v434h-129v-434zM324 758q-18 -53 -38.5 -101.5t-44.5 -93.5v-607h-30v555
q-54 -84 -117 -155l-11 33q149 168 212 380z" />
    <glyph glyph-name="cid1475" unicode="&#x4fa3;" 
d="M827 724v-274h-394v274h394zM798 694h-335v-215h335v215zM867 -40h-30v61h-416v-62h-29v366h475v-365zM837 50v247h-416v-247h416zM219 505q-27 -39 -56.5 -75t-62.5 -71l-10 33q158 169 225 377l27 -11q-37 -109 -92 -204v-598h-31v549z" />
    <glyph glyph-name="cid1477" unicode="&#x4fa6;" 
d="M618 778v-80h271v-30h-271v-111h209v-403h-30v375h-365v-381h-30v409h187v221h29zM675 144q133 -81 219 -161l-21 -22q-41 40 -95 80.5t-123 83.5zM633 456v-133q-1 -145 -66 -233q-63 -80 -208 -129l-18 27q138 42 205 124q54 81 56 211v133h31zM222 501
q-29 -38 -58 -72.5t-62 -68.5l-10 32q83 85 139.5 179t91.5 199l27 -12q-19 -57 -44 -108.5t-55 -100.5v-593h-29v545z" />
    <glyph glyph-name="cid1478" unicode="&#x4fa7;" 
d="M606 185h-28v509h-210v-510h-30v538h268v-537zM511 139q78 -79 132 -159l-21 -22q-25 38 -58.5 78.5t-73.5 83.5zM488 634v-281q-2 -159 -45 -254q-43 -88 -139 -140l-16 26q94 49 133 136q38 89 40 232v281h27zM193 500q-20 -38 -43.5 -73t-49.5 -69l-10 32
q65 86 109.5 181.5t71.5 201.5l29 -12q-17 -55 -35.5 -104t-39.5 -97v-604h-32v544zM703 -35l-6 29q46 -3 90 -3t44 48v731h30v-738q0 -67 -63 -67h-95zM721 687v-562h-28v562h28z" />
    <glyph glyph-name="cid1484" unicode="&#x4faf;" 
d="M740 567v135h-334v29h366v-164h119v-29h-549v29h398zM442 393q-36 -55 -83 -102l-20 23q86 80 132 191l27 -6q-19 -43 -37 -77h388v-29h-213q-2 -42 -7 -77t-11 -65h268v-28h-240q48 -154 256 -239l-16 -26q-218 94 -269 265h-7q-17 -62 -43 -102q-67 -95 -218 -162
l-19 24q147 64 209 150q24 39 40 90h-245v28h254q6 30 11.5 66t8.5 76h-166zM220 520q-28 -46 -58 -87t-65 -80l-10 31q147 173 209 384l28 -12q-16 -48 -34 -93.5t-40 -87.5v-619h-30v564z" />
    <glyph glyph-name="cid1485" unicode="&#x4fb5;" 
d="M200 497q-47 -75 -101 -139l-11 33q137 170 200 383l27 -13q-17 -58 -38.5 -110.5t-47.5 -100.5v-594h-29v541zM371 474v27h412v89h-385v28h385v88h-408v28h438v-260h-442zM877 261h-29v107h-495v-107h-30v134h554v-134zM806 271v-26q-59 -97 -173 -165q55 -29 123.5 -52
t146.5 -43l-16 -25q-85 21 -155.5 46t-126.5 56q-58 -32 -128 -58t-154 -46l-12 26q156 37 267 96q-116 69 -168 164h-28v27h424zM441 244q26 -44 66.5 -81t97.5 -69q106 63 167 150h-331z" />
    <glyph glyph-name="cid15183" unicode="&#x4fb6;" 
d="M433 454v270h394v-270h-196q-6 -34 -13.5 -65.5t-17.5 -63.5h267v-365h-30v61h-416v-62h-29v366h177q23 63 32 129h-168zM837 50v247h-416v-247h416zM798 694h-335v-212h335v212zM219 505q-27 -41 -56.5 -77.5t-62.5 -71.5l-10 32q158 170 225 385l27 -13
q-37 -112 -92 -206v-598h-31v549z" />
    <glyph glyph-name="cid15184" unicode="&#x4fb7;" 
d="M739 311v-212h-200v212h200zM712 284h-147v-158h147v158zM465 702v-129h350v129h-350zM465 434h408q0 -154 -4 -246.5t-9 -128.5q-11 -94 -117 -94q-13 0 -31.5 0.5t-44.5 0.5l-8 26q23 -1 44 -1h39q75 0 88 71q6 31 8 116.5t4 226.5h-378q-3 -249 -116 -432l-22 20
q108 167 111 429v310h409v-190h-381v-108zM350 746q-19 -52 -42.5 -99.5t-49.5 -92.5v-598h-31v550q-27 -40 -58.5 -76.5t-66.5 -70.5l-10 33q83 82 139.5 173.5t91.5 193.5z" />
    <glyph glyph-name="cid1486" unicode="&#x4fbf;" 
d="M895 724v-31h-264v-103h221v-323h-223q-4 -110 -63 -181q147 -86 344 -98l-8 -28q-208 10 -357 104q-70 -62 -216 -103l-17 26q70 17 121.5 40.5t86.5 53.5q-78 54 -136 125l24 16q30 -35 63 -64.5t70 -57.5q53 68 58 167h-218v323h219v103h-236v31h531zM821 417h-190
v-122h190v122zM600 417h-191v-122h191v122zM600 445v119h-191v-119h191zM631 445h190v119h-190v-119zM209 501q-50 -84 -107 -153l-10 32q140 177 197 389l28 -11q-33 -112 -79 -201v-596h-29v540z" />
    <glyph glyph-name="cid15194" unicode="&#x4fc2;" 
d="M346 760q-20 -59 -44 -113.5t-54 -104.5v-583h-32v534q-51 -76 -111 -143l-9 33q155 177 221 390zM489 -33l-6 29q21 -1 41.5 -1.5t40.5 -0.5q40 0 40 41v255q-107 -9 -221 -14l-4 27q3 1 6 1t7 2q112 54 258 189q-59 -8 -121 -13t-128 -9l-6 27q58 35 103.5 79.5
t77.5 99.5q-48 -4 -97 -6.5t-104 -2.5l-8 27q292 1 474 61l14 -25q-105 -36 -244 -51q-67 -115 -162 -179q58 4 115 8.5t115 10.5q51 50 101 101l25 -13q-103 -107 -193.5 -184t-169.5 -122q184 12 356 32q-17 23 -36.5 48.5t-41.5 51.5l25 15q48 -58 83 -108t60 -94
l-24 -15q-10 19 -22.5 38.5t-26.5 40.5q-44 -7 -89 -11.5t-92 -9.5v-265q0 -60 -59 -60h-87zM474 195q-59 -115 -137 -201l-24 18q39 40 72.5 89t62.5 108zM743 213q52 -58 91 -107.5t65 -93.5l-23 -18q-28 46 -67 97t-90 106z" />
    <glyph glyph-name="cid1487" unicode="&#x4fc3;" 
d="M209 501q-24 -39 -50.5 -75t-56.5 -70l-10 33q143 172 201 380l29 -11q-16 -55 -37 -105.5t-47 -98.5v-598h-29v545zM840 729v-265h-192v-170h225v-29h-225v-249q27 -5 62.5 -7.5t76.5 -4.5q51 0 81 0.5t42 0.5l-7 -30h-100q-171 0 -235 39q-94 51 -140 182
q-43 -142 -115 -238l-20 24q107 147 146 401l29 -5q-5 -36 -12 -69.5t-15 -66.5q21 -74 57 -126q45 -60 104 -86q4 -1 8.5 -2.5l7.5 -2.5v439h-216v265h438zM810 700h-378v-205h378v205z" />
    <glyph glyph-name="cid1488" unicode="&#x4fc4;" 
d="M331 -35l-5 29q40 -3 80 -3q43 0 43 46v209q-35 -12 -71 -23.5t-72 -21.5l-8 33q40 9 77 20t74 23v207h-146v30h146v142q-27 -13 -56.5 -23t-62.5 -20l-13 29q150 35 223 114l23 -20q-19 -20 -39 -36t-45 -29v-157h164q-3 59 -4 122.5t-1 132.5h30q0 -72 1 -135.5
t3 -119.5h217v-30h-217q5 -94 12.5 -168t17.5 -129q74 92 125 232l25 -14q-57 -154 -143 -255q0 -3 2 -5q41 -156 99 -157q36 5 67 163l24 -19q-37 -176 -91 -176q-49 0 -86 70q-23 44 -38 99q-63 -64 -135 -100l-16 25q78 40 144 110q-6 20 -9 41.5t-6 44.5
q-7 51 -12.5 110.5t-7.5 127.5h-165v-195q30 10 57.5 22t53.5 25v-32q-26 -12 -53.5 -24t-57.5 -22v-229q0 -64 -63 -64h-85zM200 520q-25 -44 -52 -83.5t-58 -76.5l-9 33q69 87 115.5 182.5t75.5 204.5l29 -13q-16 -52 -33.5 -98.5t-38.5 -91.5v-621h-29v564zM758 744
q29 -30 55.5 -64t52.5 -71l-23 -19q-26 41 -53 74.5t-55 62.5z" />
    <glyph glyph-name="cid1490" unicode="&#x4fca;" 
d="M720 732q102 -99 157 -175l-25 -18q-23 34 -48 64q-119 -14 -229 -24.5t-214 -17.5l-6 26q99 39 203 197l33 -10q-87 -129 -175 -184q135 12 226.5 21t140.5 16q-20 23 -41.5 45t-44.5 45zM519 505q-75 -91 -182 -158l-20 24q109 66 180 155zM866 363q-52 49 -99.5 86.5
t-89.5 64.5l20 20q83 -49 191 -150zM460 249q-28 -21 -59 -41t-64 -38l-20 25q196 102 263 246l29 -6q-25 -59 -70 -112h263v-26q-42 -120 -157 -203q107 -68 271 -106l-11 -30q-177 40 -288 116q-117 -71 -291 -116l-15 25q172 45 280 111q-85 67 -131 155zM618 112
q108 75 151 182h-258q-7 -6 -14 -13l-14 -14q22 -45 56 -84t79 -71zM216 505q-50 -76 -116 -146l-10 34q78 86 133.5 180.5t89.5 200.5l27 -13q-37 -112 -92 -206v-599h-32v549z" />
    <glyph glyph-name="cid1492" unicode="&#x4fcf;" 
d="M222 505q-52 -79 -120 -151l-8 30q154 173 219 387l27 -12q-36 -110 -89 -203v-600h-29v549zM651 771v-262h201v-478q0 -68 -67 -68h-114l-9 31l113 -2q46 0 46 46v127h-378v-208h-31v552h210v262h29zM443 194h378v124h-378v-124zM821 481h-378v-134h378v134zM411 738
q27 -34 50 -71.5t45 -79.5l-27 -13q-46 85 -95 150zM876 735q-20 -44 -45 -85t-55 -82l-27 15q61 83 100 164z" />
    <glyph glyph-name="cid1493" unicode="&#x4fd0;" 
d="M194 504q-21 -38 -46 -73.5t-52 -68.5l-10 32q130 167 188 375l27 -12q-17 -53 -35 -101t-40 -95v-595h-32v538zM464 521v154q-33 -9 -68 -14.5t-72 -8.5l-10 28q164 13 292 75l16 -27q-31 -14 -63 -26t-65 -21v-160h131v-29h-131v-68q33 -39 66.5 -82t67.5 -91l-16 -26
q-34 54 -63.5 94.5t-54.5 73.5v-434h-30v475q-62 -174 -184 -306l-13 32q70 73 119.5 156t76.5 176h-147v29h148zM686 -35l-6 29q58 -3 112 -3q41 0 41 38v738h30v-746q0 -56 -60 -56h-117zM714 681v-553h-30v553h30z" />
    <glyph glyph-name="cid1495" unicode="&#x4fd7;" 
d="M799 -39h-29v56h-323v-56h-30v340h382v-340zM770 47v224h-323v-224h323zM677 760q59 -44 109.5 -85.5t90.5 -84.5l-23 -22q-38 41 -87 83.5t-111 87.5zM544 739q-42 -53 -85 -97.5t-88 -81.5l-24 21q101 84 173 177zM219 509q-27 -41 -58 -79.5t-64 -74.5l-10 34
q79 85 134.5 180t88.5 200l28 -12q-19 -54 -40 -102.5t-48 -94.5v-600h-31v549zM626 588q80 -147 280 -260l-17 -26q-185 103 -275 255q-113 -164 -284 -255l-17 26q186 100 288 260h25z" />
    <glyph glyph-name="cid1499" unicode="&#x4fdd;" 
d="M330 762q-17 -51 -38 -100t-46 -95v-611h-31v558q-27 -43 -58 -82.5t-63 -76.5l-11 34q153 173 219 385zM814 727v-258h-189v-129h270v-30h-226q88 -160 240 -271l-20 -26q-152 119 -248 297h-16v-352h-31v352h-17q-100 -192 -253 -299l-18 27q154 103 245 272h-220v30
h263v129h-188v258h408zM782 697h-344v-198h344v198z" />
    <glyph glyph-name="cid1502" unicode="&#x4fe1;" 
d="M208 515q-27 -42 -55 -81t-59 -76l-11 33q144 175 206 390l28 -14q-15 -54 -35.5 -103.5t-44.5 -96.5v-611h-29v559zM910 638v-30h-576v30h576zM831 506v-29h-414v29h414zM831 380v-30h-414v30h414zM843 -42h-30v53h-376v-53h-31v290h437v-290zM813 40v179h-376v-179h376
zM604 776q17 -29 28 -54.5t19 -50.5l-27 -10q-10 27 -22 53t-27 53z" />
    <glyph glyph-name="cid1505" unicode="&#x4fe8;" 
d="M211 514q-24 -42 -52 -80.5t-59 -74.5l-10 33q142 170 202 380l26 -12q-15 -52 -34.5 -100.5t-42.5 -92.5v-611h-30v558zM882 726v-29h-178v-252h192v-29h-497v-158q-4 -187 -94 -301l-22 22q83 101 87 279v187h181v252h-180v29h511zM675 445v252h-97v-252h97zM854 645
q-27 -90 -67 -155l-26 10q39 63 67 153zM421 645q19 -33 35 -68.5t29 -71.5l-25 -11q-29 79 -65 142z" />
    <glyph glyph-name="cid1506" unicode="&#x4fe9;" 
d="M222 526q-28 -47 -58 -90t-64 -83l-10 31q143 177 202 390l27 -13q-14 -46 -31 -89t-35 -86v-630h-31v570zM894 705v-29h-185v-85.5t-2 -74.5h153v-481q0 -69 -62 -69h-82l-10 29l82 -1q42 0 42 47v445h-124q-1 -17 -1.5 -34t-2.5 -32q-1 -15 -2.5 -29.5t-3.5 -30.5
q27 -37 52.5 -79.5t51.5 -90.5l-18 -26q-27 53 -49 93.5t-41 69.5q-24 -140 -82 -236l-18 24q35 60 55.5 139t26.5 179l3 53h-130q-1 -15 -1.5 -29t-2.5 -27q-1 -15 -2.5 -31.5t-4.5 -30.5q39 -50 86 -132l-21 -20q-37 71 -71 118q-21 -130 -79 -218l-18 23
q35 58 55.5 133.5t27.5 170.5l2 43h-116v-525h-31v555h149q2 36 2 75.5v84.5h-172v29h544zM678 516q3 72 3 160h-129q0 -46 -0.5 -85.5t-1.5 -74.5h128z" />
    <glyph glyph-name="cid1509" unicode="&#x4fee;" 
d="M618 772q-9 -22 -18 -42.5t-21 -40.5h276v-28q-55 -99 -160 -169q43 -24 95 -43.5t115 -34.5l-14 -30q-68 18 -124 40.5t-100 48.5q-99 -57 -233 -93l-12 28q64 17 117.5 36.5t99.5 47.5q-76 52 -116 123q-17 -17 -35 -34t-40 -32l-18 24q116 83 159 205zM543 638
q21 -37 51.5 -70.5t73.5 -59.5q50 33 88.5 70t64.5 82h-261zM320 758q-15 -52 -35 -100.5t-44 -93.5v-607h-30v554q-50 -80 -113 -152l-10 33q73 85 123.5 179t80.5 199zM381 618v-506h-31v506h31zM732 380q-26 -23 -51 -41t-50 -35q-31 -15 -67 -30.5t-78 -29.5l-16 24
q83 25 139 56q29 15 53 32t46 37zM814 312q-106 -141 -309 -203l-12 26q199 60 298 193zM454 -17q76 23 139 48.5t113 54.5q99 59 167 155l21 -17q-56 -91 -177 -165q-122 -69 -250 -103z" />
    <glyph glyph-name="cid1510" unicode="&#x4fef;" 
d="M530 404q-19 -28 -39.5 -54t-43.5 -50l-9 28q103 117 149 260l27 -11q-13 -35 -25.5 -65t-28.5 -58v-496h-30v446zM796 451v124h30v-124h80v-31h-80v-399q0 -61 -64 -61h-84l-6 30q21 -2 40.5 -2h39.5q44 0 44 40v392h-163v31h163zM627 778q12 -23 22 -49t21 -57h225v-29
h-487v-238q-6 -279 -91 -446l-24 21q80 157 83 425v267h263q-19 59 -44 100zM650 339q43 -86 78 -183l-26 -14q-38 105 -77 184zM208 523q-51 -88 -114 -163l-11 33q140 172 198 383l29 -13q-31 -96 -73 -183v-624h-29v567z" />
    <glyph glyph-name="cid1511" unicode="&#x4ff1;" 
d="M228 509q-58 -85 -127 -156l-9 31q161 173 231 388l27 -13q-19 -55 -42 -104t-49 -97v-602h-31v553zM810 186h98v-31h-570v31h101v542h371v-542zM781 186v113h-311v-113h311zM781 326v107h-311v-107h311zM781 461v103h-311v-103h311zM781 592v109h-311v-109h311zM571 107
q-78 -85 -200 -150l-18 24q117 61 197 145zM702 128q101 -68 185 -148l-20 -22q-44 44 -90 81t-94 69z" />
    <glyph glyph-name="cid15236" unicode="&#x5009;" 
d="M293 390q0 -20 -1 -39t-3 -38h445v93h-441v-16zM734 530h-441v-96h441v96zM285 284q-25 -180 -135 -319l-25 19q134 156 137 406v167h260q-13 27 -28 49.5t-29 41.5l26 12q34 -47 65 -103h207v-273h-478zM516 762q86 -59 182.5 -111t203.5 -96l-16 -26
q-114 51 -209.5 102t-174.5 103q-78 -52 -173 -103t-209 -102l-16 26q107 44 204 96t182 111h26zM787 -42h-30v46h-428v-46h-33v248h491v-248zM757 31v147h-428v-147h428z" />
    <glyph glyph-name="cid15238" unicode="&#x500b;" 
d="M337 760q-36 -111 -89 -202v-599h-32v548q-26 -43 -56 -80t-63 -73l-10 30q78 89 133.5 185t89.5 203zM877 -42h-28v56h-439v-56h-29v770h496v-770zM849 43v658h-439v-658h439zM616 529v116h28v-116h148v-29h-148v-127h103v-242h-231v242h100v127h-148v29h148zM719 347
h-177v-188h177v188z" />
    <glyph glyph-name="cid1517" unicode="&#x500d;" 
d="M602 672q-9 29 -18.5 53.5t-19.5 46.5l29 7q23 -48 41 -107h240v-29h-514v29h242zM505 425q-23 83 -65 158l28 9q38 -68 69 -167h145q43 81 71 171l31 -11q-15 -47 -32.5 -86.5t-37.5 -73.5h184v-31h-572v31h179zM806 -40h-31v57h-333v-57h-31v321h395v-321zM775 48v204
h-333v-204h333zM208 515q-27 -42 -55 -81t-59 -75l-11 33q145 173 207 387l27 -14q-15 -53 -35.5 -102t-44.5 -96v-611h-29v559z" />
    <glyph glyph-name="cid15241" unicode="&#x5011;" 
d="M213 523q-48 -92 -111 -168l-10 33q132 170 189 382l27 -11q-27 -95 -65 -175v-622h-30v561zM384 451h160v116h-160v-116zM544 709h-160v-113h160v113zM674 450h166v117h-166v-117zM840 709h-166v-113h166v113zM574 422h-190v-460h-29v774h219v-314zM644 422v314h224
v-710q0 -57 -53 -57q-30 0 -59.5 0.5t-58.5 0.5l-7 30q30 -2 58.5 -3t55.5 -1q36 0 36 40v386h-196z" />
    <glyph glyph-name="cid1519" unicode="&#x5012;" 
d="M626 52q-152 -41 -326 -69l-8 30q40 5 80 11.5t78 14.5v207h-136v30h136v117h29v-117h135v-30h-135v-200q39 10 75.5 18.5t71.5 18.5v-31zM623 726v-30h-172q-53 -165 -102 -240q117 10 214 30q-15 30 -29.5 60t-32.5 61l24 16q31 -59 55 -109t42 -92l-25 -19
q-6 14 -12 28.5t-11 28.5q-62 -11 -126.5 -20.5t-135.5 -15.5l-8 27q6 2 12 5q26 32 52 92.5t53 147.5h-104v30h306zM705 -34l-7 29q26 -1 50 -1.5t47 -0.5q41 0 41 41v733h29v-741q0 -60 -59 -60h-101zM711 687v-561h-29v561h29zM199 523q-43 -85 -99 -160l-10 32
q60 86 101.5 179t65.5 197l28 -12q-13 -46 -27 -88t-30 -83v-632h-29v567z" />
    <glyph glyph-name="cid1521" unicode="&#x5018;" 
d="M638 773v-275h222v-466q0 -72 -68 -72h-76l-10 31l75 -2q49 0 49 50v430h-420v-511h-29v540h225v275h32zM724 353v-243h-207v243h207zM695 325h-149v-187h149v187zM863 722q-47 -99 -109 -170l-24 15q32 36 58 78t49 90zM420 727q24 -38 45 -78.5t37 -84.5l-26 -12
q-19 48 -39.5 89t-43.5 78zM215 505q-26 -41 -55.5 -77.5t-62.5 -71.5l-10 33q156 174 224 387l27 -14q-20 -54 -42 -106t-50 -100v-600h-31v549z" />
    <glyph glyph-name="cid1522" unicode="&#x5019;" 
d="M313 758q-17 -52 -35.5 -100.5t-41.5 -93.5v-609h-30v554q-24 -41 -51 -80t-59 -76l-9 32q69 88 119 183t79 202zM371 610v-528h-29v528h29zM758 561v139h-280v28h310v-167h94v-30h-449v30h325zM520 384q-32 -54 -70 -95l-20 23q70 77 111 185l27 -7q-6 -19 -14.5 -38
t-17.5 -38h324v-30h-187v-12q0 -70 -14 -126h239v-27h-224q65 -134 233 -236l-19 -25q-174 113 -239 253q-57 -173 -244 -253l-20 25q184 71 236 236h-191v27h198q7 29 11.5 58t4.5 61v19h-124z" />
    <glyph glyph-name="cid1523" unicode="&#x501a;" 
d="M601 688q3 16 5 32t3 32v20h30v-20q0 -18 -2.5 -33.5t-4.5 -30.5h253v-31h-260q-4 -13 -8.5 -23.5t-11.5 -21.5q73 -24 137 -53.5t122 -63.5l-15 -26q-64 37 -127.5 67t-128.5 53q-4 -5 -8 -9t-8 -10q-57 -62 -193 -100l-18 27q129 31 189 92q26 33 38 68h-223v31h231z
M908 418v-29h-94v-372q0 -56 -62 -56h-116l-5 30q55 -3 109 -3q44 0 44 38v363h-464v29h588zM656 293v-203h-265v203h265zM626 267h-207v-150h207v150zM213 514q-51 -83 -113 -151l-10 32q74 86 125 179.5t81 197.5l30 -12q-33 -102 -82 -193v-611h-31v558z" />
    <glyph glyph-name="cid1525" unicode="&#x501f;" 
d="M220 511q-54 -92 -121 -173l-11 32q145 180 208 404l30 -13q-32 -103 -76 -191v-614h-30v555zM490 658v113h32v-113h187v113h30v-113h138v-28h-138v-146h163v-30h-572v30h160v146h-133v28h133zM709 484v146h-187v-146h187zM823 -38h-29v50h-351v-50h-29v394h409v-394z
M794 41v130h-351v-130h351zM794 199v128h-351v-128h351z" />
    <glyph glyph-name="cid1526" unicode="&#x5021;" 
d="M818 729v-299h-393v299h393zM786 565h-333v-107h333v107zM786 592v109h-333v-109h333zM864 -42h-30v50h-425v-50h-29v374h484v-374zM834 38v119h-425v-119h425zM834 186v118h-425v-118h425zM217 506q-27 -44 -57.5 -83t-65.5 -75l-11 32q160 177 229 396l27 -14
q-37 -108 -89 -204v-602h-33v550z" />
    <glyph glyph-name="cid1531" unicode="&#x502a;" 
d="M417 359h391v152h-167v29h167v152h-153v28h183v-390h-136v-291q0 -38 41 -38h64q32 0 45 15q9 13 15.5 44.5t8.5 84.5l29 -8q-7 -112 -30 -145q-20 -20 -62 -20h-79q-63 0 -63 62v296h-124q-8 -158 -50 -232q-46 -82 -155 -139l-20 24q104 55 146 127q42 73 49 220h-130
v367q49 13 90.5 29.5t79.5 38.5l19 -26q-33 -17 -72.5 -33.5t-86.5 -33.5v-131h161v-29h-161v-153zM209 514q-25 -42 -53 -81t-61 -76l-11 32q145 175 207 389l28 -13q-16 -54 -36.5 -103t-44.5 -95v-611h-29v558z" />
    <glyph glyph-name="cid15254" unicode="&#x502b;" 
d="M778 552v-30h-346v30h346zM384 -39h-29v462h488v-402q0 -56 -55 -56h-74l-9 29l72 -1q37 0 37 34v173h-129v-209h-27v209h-119v-209h-28v209h-127v-239zM814 393h-129v-164h129v164zM539 393v-164h119v164h-119zM384 393v-164h127v164h-127zM616 768q86 -131 291 -227
l-18 -27q-95 47 -166.5 101.5t-119.5 121.5q-112 -147 -281 -227l-17 27q186 89 285 231h26zM332 762q-19 -54 -41.5 -105t-48.5 -100v-601h-30v553q-49 -76 -111 -141l-9 31q149 169 212 377z" />
    <glyph glyph-name="cid1535" unicode="&#x503a;" 
d="M610 713v60h31v-60h235v-29h-235v-82h213v-26h-213v-82h269v-31h-568v31h268v82h-210v26h210v82h-235v29h235zM843 103h-30v253h-369v-259h-30v288h429v-282zM647 302q0 -107 -38 -181q-49 -99 -223 -162l-20 25q155 55 210 138q41 73 41 180h30zM669 97
q62 -23 119.5 -52t109.5 -62l-16 -25q-57 36 -114 65t-117 50zM215 522q-27 -43 -57 -83t-64 -77l-11 31q150 171 215 383l28 -14q-16 -50 -36.5 -96t-43.5 -89v-621h-31v566z" />
    <glyph glyph-name="uni503C" unicode="&#x503c;" 
d="M651 771l-7 -93h238v-29h-242q-5 -29 -8 -55t-7 -52h190v-524h92v-29h-579v29h98v524h168q5 28 8.5 54.5t6.5 52.5h-243v29h247q2 24 4.5 49t4.5 49zM785 18v110h-331v-110h331zM785 155v104h-331v-104h331zM785 287v101h-331v-101h331zM785 415v99h-331v-99h331z
M229 530q-27 -47 -58.5 -88.5t-65.5 -82.5l-10 34q72 86 124.5 180.5t84.5 200.5l27 -13q-28 -93 -72 -176v-626h-30v571z" />
    </font>
</defs>
</svg>
